Классический форум-трекер
canvas not supported
Нас вместе: 4 232 961

Мулен Руж / Moulin Rouge! (2001) HDRip


 
 
RSS
Начать новую тему   Ответить на тему    Торрент-трекер NNM-Club -> Зарубежное кино -> Зарубежные Фильмы (SD)
Автор Сообщение
Marioxo ®
Стаж: 11 лет 5 мес.
Сообщений: 61
Ratio: 8.309
Раздал: 3.58 TB
Поблагодарили: 10500
100%
russia.gif
Мулен Руж / Moulin Rouge! (2001) HDRip
Русское название: Мулен Руж
Оригинальное название: Moulin Rouge!
Год выпуска: 2001
Производство: США, Австралия
Жанр: Мьюзикл, Драма, Мелодрама

Описание фильма:
Действие фильма разворачивается в 1899 году в знаменитом парижском ночном клубе. Мулен Руж, это не только дискотека и шикарный бордель, но и место, где, повинуясь неудержимому желанию прочувствовать атмосферу праздника, собираются страждущие приобщиться к красоте, свободе, любви и готовые платить за это… наличными.
Это место, где воедино сходятся трагедия и комедия, роскошные интерьеры начала столетия и современные музыкальные ритмы.
За любовь самой известной куртизанки Парижа, блистательной Сатин борются двое мужчин, один из которых — бедный писатель Кристиан, с головой окунувшийся в сумасшедший мир ночных развлечений, второй — богатый герцог, готовый купить весь Мулен Руж, лишь бы Сатин провела с ним ночь.



Режиссер: Баз Лурман
Актеры: Ивэн МакГрегор, Николь Кидман, Джон Легуизамо, Джим Броадбент, Гарри МакДоналд, Ричард Роксбег, Кайли Миноуг

Продолжительность: 02:07:47
Перевод: Дублированный
Язык субтитров: Отсутствуют

Дата мировой премьеры: 9 мая 2001
Дата российской премьеры: 2 августа 2001, «Гемини Киномир»
Дата выхода DVD релиза: 18 декабря 2008, «Двадцатый Век Фокс СНГ»

Видеокодек: Xvid
Битрейт видео: ~700 kbps avg
Размер кадра: 656x272
Качество видео: HDRip
Аудиокодек: MP3, 2.0
Битрейт аудио: 128.00 kbps avg
Общее
Полное имя : D:\Торренты на раздачу\Мулен Руж\Moulin_Rouge.avi
Формат : AVI
Формат/Информация : Audio Video Interleave
Размер файла : 766 Мбайт
Продолжительность : 2 ч. 7 м.
Общий поток : 838 Кбит/сек
Программа кодирования : VirtualDubMod 1.5.10.2 (build 2540/release)
Библиотека кодирования : VirtualDubMod build 2540/release

Видео
Идентификатор : 0
Формат : MPEG-4 Visual
Профиль формата : Advanced Simple@L5
Параметр BVOP формата : 2
Параметр QPel формата : Нет
Параметр GMC формата : Без точки перехода
Параметр матрицы формата : Выборочная
Идентификатор кодека : XVID
Идентификатор кодека/Подсказка : XviD
Продолжительность : 2 ч. 7 м.
Битрейт : 701 Кбит/сек
Ширина : 656 пикселей
Высота : 272 пикселя
Соотношение сторон : 2,40:1
Частота кадров : 23,976 кадра/сек
Цветовое пространство : YUV
Субдискретизация насыщенности : 4:2:0
Битовая глубина : 8 бит
Тип развёртки : Прогрессивная
Метод сжатия : С потерями
Бит/(Пиксели*Кадры) : 0.164
Размер потока : 641 Мбайт (84%)
Библиотека кодирования : XviD 1.2.1 (UTC 2008-12-04)

Аудио
Идентификатор : 1
Формат : MPEG Audio
Версия формата : Version 1
Профиль формата : Layer 3
Идентификатор кодека : 55
Идентификатор кодека/Подсказка : MP3
Продолжительность : 2 ч. 7 м.
Вид битрейта : Постоянный
Битрейт : 128 Кбит/сек
Каналы : 2 канала
Частота : 48,0 КГц
Метод сжатия : С потерями
Размер потока : 117 Мбайт (15%)
Выравнивание : Соединение по промежуткам
Продолжительность промежутка : 42 мс. (1,00 видеокадр)
Время предзагрузки промежутка : 504 мс.
Библиотека кодирования : LAME3.98r
Настройки программы : -m s -V 4 -q 2 -lowpass 17 -b 128
Скриншоты:


Все релизы "Мулен Руж" на сайте

Время раздачи: ~ С 14:00 до 03:00 (10-15 скачавших)
[NNM-Club.ru]_Moulin_Rouge.torrent
 Торрент: Платиновая раздача  Зарегистрирован
 
Скачать


Примагнититься
 Зарегистрирован:   10 Июн 2013 18:31:37
 Размер:   766 MB  (
 Рейтинг:   4.1 (Голосов: 20)
 Поблагодарили:   75
 Проверка:   Оформление проверено модератором 11 Июн 2013 14:55:43
Как cкачать  ·  Как раздать  ·  Правильно оформить  ·  Поднять ратио!  
Старыймичман
 
Стаж: 12 лет 10 мес.
Сообщений: 118
Ratio: 0.411
80.58%
Откуда: Мурманск
russia.gif
Кино отличное !! на мой взгляд лучший мюзикл что я видел.
качество не очень маловат размер
Показать сообщения:   
Начать новую тему   Ответить на тему    Торрент-трекер NNM-Club -> Зарубежное кино -> Зарубежные Фильмы (SD) Часовой пояс: GMT + 3
Страница 1 из 1