Классический форум-трекер
canvas not supported
Нас вместе: 4 232 971

Властелин колец / The Lord Of The Rings (1978) HDRip


 
 
RSS
Начать новую тему   Ответить на тему    Торрент-трекер NNM-Club -> Мультфильмы -> Зарубежные Мультфильмы 20-го века (SD)
Автор Сообщение
Marioxo ®
Стаж: 11 лет 5 мес.
Сообщений: 61
Ratio: 8.309
Раздал: 3.58 TB
Поблагодарили: 10500
100%
russia.gif
Властелин колец / The Lord Of The Rings (1978) HDRip
Русское название: Властелин колец
Оригинальное название: The Lord Of The Rings
Год выпуска: 1978
Производство: США
Жанр: Приключения, Фэнтези, Драма

Описание:
Сказания Средиземья — это хроника Великой войны за Кольцо, войны, длившейся не одну тысячу лет. Тот, кто владел Кольцом, получал власть над всеми живыми тварями, но был обязан служить злу. Хоббит Фродо призван уничтожить Кольцо. Он отправился за ним в Мордор и на огненную Гору Судьбы вместе с союзниками — эльфами, гномами, людьми и хоббитами.
«Властелин колец» повествует о борьбе добра и зла, сохраняя сказочную атмосферу классики жанра «фэнтези» — трилогии Дж. Р. Р. Толкиена.



Режиссер: Ральф Бакши / Ralph Bakshi
Персонажи: Кристофер Гард, Уильям Скуайр, Майкл Скоулс, Джон Хёрт, Саймон Чэндлер, Доминик Гард, Норман Бёрд, Майкл Грэм Кокс, Энтони Дэниелс, Дэвид Бак

Продолжительность: 02:13:20
Перевод: Многоголосый закадровый
Язык субтитров: Отсутствуют

Видеокодек: Xvid
Битрейт видео: ~650 kbps avg
Размер кадра: 720x400
Качество видео: HDRip
Аудиокодек: MP3, 2.0
Битрейт аудио: 128 kbps
Общее
Полное имя : D:\Торренты на раздачу\Властелин колец\The_Lord_of_the_Rings_1978.avi
Формат : AVI
Формат/Информация : Audio Video Interleave
Размер файла : 750 Мбайт
Продолжительность : 2 ч. 13 м.
Общий поток : 787 Кбит/сек
Программа кодирования : VirtualDubMod 1.5.10.2 (build 2540/release)
Библиотека кодирования : VirtualDubMod build 2540/release

Видео
Идентификатор : 0
Формат : MPEG-4 Visual
Профиль формата : Advanced Simple@L5
Параметр BVOP формата : 1
Параметр QPel формата : Нет
Параметр GMC формата : Без точки перехода
Параметр матрицы формата : Default (MPEG)
Идентификатор кодека : XVID
Идентификатор кодека/Подсказка : XviD
Продолжительность : 2 ч. 13 м.
Битрейт : 649 Кбит/сек
Ширина : 720 пикселей
Высота : 400 пикселей
Соотношение сторон : 16:9
Частота кадров : 23,976 кадра/сек
Цветовое пространство : YUV
Субдискретизация насыщенности : 4:2:0
Битовая глубина : 8 бит
Тип развёртки : Прогрессивная
Метод сжатия : С потерями
Бит/(Пиксели*Кадры) : 0.094
Размер потока : 619 Мбайт (83%)
Библиотека кодирования : XviD 1.2.0.dev47 (UTC 2006-11-01)

Аудио
Идентификатор : 1
Формат : MPEG Audio
Версия формата : Version 1
Профиль формата : Layer 3
Идентификатор кодека : 55
Идентификатор кодека/Подсказка : MP3
Продолжительность : 2 ч. 13 м.
Вид битрейта : Постоянный
Битрейт : 128 Кбит/сек
Каналы : 2 канала
Частота : 48,0 КГц
Метод сжатия : С потерями
Размер потока : 122 Мбайт (16%)
Выравнивание : Соединение по промежуткам
Продолжительность промежутка : 42 мс. (1,00 видеокадр)
Время предзагрузки промежутка : 504 мс.
Библиотека кодирования : LAME3.97
Настройки программы : -m s -V 4 -q 2 -lowpass 17 -b 128
Скриншоты:


Все релизы "Властелин колец" на сайте

Время раздачи: ~ С 14:00 до 03:00 (10-15 скачавших)
[NNM-Club.ru]_The_Lord_of_the_Rings_1978.torrent
 Торрент: Платиновая раздача  Зарегистрирован
 
Скачать


Примагнититься
 Зарегистрирован:   10 Июн 2013 19:12:13
 Размер:   750 MB  (
 Рейтинг:   4.6 (Голосов: 39)
 Поблагодарили:   106
 Проверка:   Оформление проверено модератором 10 Июн 2013 21:20:54
Как cкачать  ·  Как раздать  ·  Правильно оформить  ·  Поднять ратио!  
banzay23ru
 
Стаж: 14 лет
Сообщений: 49
Ratio: 8.779
100%
russia.gif
Как бы
[url=http...........]Режиссёр : Иван Иванов-Вано, Михаил Ботов. 1956 года выпуска[/url]
чисто для сравнения
 !  Примечание от starklad:
5. Правила комментирования торрентов
5.1. Система комментариев торрентов создана для того чтобы:
- задать вопрос относительно особенностей раздачи, если это недостаточно освещено в описании или аналогичный вопрос не был рассмотрен в комментариях выше,
- сообщить интересную или важную информацию, относящуюся к раздаче
.
Всем участникам форума запрещается:
2.11. Ссылаться на другие ресурсы сети, особенно, если существует раздача на данном форуме (исключениями могут являться ссылки на дополнительную информацию, домашнюю страницу автора или описание программы/фильма, семплы).
metador
Стаж: 11 лет
Сообщений: 1
Ratio: 5.796
0%
Насколько я помню этот мульт не закончен прерван гдето на середине произведения
lunata2003
Стаж: 12 лет 4 мес.
Сообщений: 10
Ratio: 16.652
3.4%
Ну в СССР мультики делали для народа и контроль был строгий + цензура. А этот мульт про властелина колец сугубо коммерческий проект => экономия на всем для большей прибыли. Капитализм мать его.
zzzRevanzzz
Стаж: 13 лет 2 мес.
Сообщений: 351
Ratio: 2.591
Поблагодарили: 58
100%
russia.gif
М/ф сам то ничего такой, но помню меня при просмотре бесили крайне странные орки-тени, сыгранные актёрами и вставленные в мультфильм - очень бредовая задумка создателей.

_________________
OldMovie
Стаж: 13 лет 4 мес.
Сообщений: 629
Ratio: 3420.241
Поблагодарили: 5482
100%
много-много лет назад местный канал показывал в одноголосом переводе, и кассетном качестве. Эх, времена!
Показать сообщения:   
Начать новую тему   Ответить на тему    Торрент-трекер NNM-Club -> Мультфильмы -> Зарубежные Мультфильмы 20-го века (SD) Часовой пояс: GMT + 3
Страница 1 из 1