Классический форум-трекер
canvas not supported
Нас вместе: 4 232 956

Район №9 / District 9 (2009) HDRip


 
 
RSS
Начать новую тему   Ответить на тему    Торрент-трекер NNM-Club -> Зарубежное кино -> Зарубежные Фильмы (SD)
Автор Сообщение
Marioxo ®
Стаж: 11 лет 5 мес.
Сообщений: 61
Ratio: 8.309
Раздал: 3.58 TB
Поблагодарили: 10500
100%
russia.gif
Район №9 / District 9 (2009) HDRip
Русское название: Район №9
Оригинальное название: District 9
Год выпуска: 2009
Производство: США
Жанр: Фантастика, Боевик, Триллер

Описание фильма:
Более 20 лет назад инопланетяне установили первый контакт с Землей. Люди были готовы ко всему — от враждебного вторжения до невероятного технологического прорыва. Ни того, ни другого не произошло. Пришельцы оказались беженцами со своей собственной планеты, и пока мировое сообщество решало, что с ними делать дальше, для них был организован временный лагерь в южноафриканском Районе N9.

Режиссер: Нил Бломкамп
Актеры: Шарлто Копли, Джейсон Коуп, Натали Болтт, Сильвен Страйк, Элизабет Мкандави, Джон Саммер

Продолжительность: 01:52:15
Перевод: Дублированный
Язык субтитров: Русские (надписи + речь пришельцев), русские (полные), английские
Вид субтитров: Отдельным файлом



Дата мировой премьеры: 13 августа 2009
Дата российской премьеры: 13 августа 2009, «BVSPR Sony»
Дата выхода DVD релиза: 9 сентября 2009, «Columbia/Sony»

Видеокодек: Xvid
Битрейт видео: ~790 kbps avg
Размер кадра: 688x368
Качество видео: HDRip
Аудиокодек: MP3 2.0
Битрейт аудио: 128 kbps avg
Общее
Полное имя : D:\Торренты на раздачу\Район №9\District_9\District_9.avi
Формат : AVI
Формат/Информация : Audio Video Interleave
Размер файла : 745 Мбайт
Продолжительность : 1 ч. 52 м.
Общий поток : 928 Кбит/сек
Программа кодирования : VirtualDubMod 1.5.10.2 (build 2540/release)
Библиотека кодирования : VirtualDub build 24463/release

Видео
Идентификатор : 0
Формат : MPEG-4 Visual
Профиль формата : Advanced Simple@L5
Параметр BVOP формата : 1
Параметр QPel формата : Нет
Параметр GMC формата : Без точки перехода
Параметр матрицы формата : Default (MPEG)
Идентификатор кодека : XVID
Идентификатор кодека/Подсказка : XviD
Продолжительность : 1 ч. 52 м.
Битрейт : 791 Кбит/сек
Ширина : 688 пикселей
Высота : 368 пикселей
Соотношение сторон : 1,85:1
Частота кадров : 23,976 кадра/сек
Цветовое пространство : YUV
Субдискретизация насыщенности : 4:2:0
Битовая глубина : 8 бит
Тип развёртки : Прогрессивная
Метод сжатия : С потерями
Бит/(Пиксели*Кадры) : 0.130
Размер потока : 635 Мбайт (85%)
Библиотека кодирования : XviD 1.2.0.dev47 (UTC 2006-11-01)

Аудио
Идентификатор : 1
Формат : MPEG Audio
Версия формата : Version 1
Профиль формата : Layer 3
Идентификатор кодека : 55
Идентификатор кодека/Подсказка : MP3
Продолжительность : 1 ч. 52 м.
Вид битрейта : Постоянный
Битрейт : 128 Кбит/сек
Каналы : 2 канала
Частота : 48,0 КГц
Метод сжатия : С потерями
Размер потока : 103 Мбайт (14%)
Выравнивание : Соединение по промежуткам
Продолжительность промежутка : 42 мс. (1,00 видеокадр)
Время предзагрузки промежутка : 504 мс.
Библиотека кодирования : LAME3.97
Настройки программы : -m s -V 4 -q 2 -lowpass 17 -b 128-m s -V 4 -q 2 -lowpass 17 -b 128-m s -V 4 -q 2 -lowpass 17 -b 128
Скриншоты:


Все релизы "Район №9" на сайте

Время раздачи: ~ С 14:00 до 03:00 (10-15 скачавших)
[NNM-Club.ru]_District_9.torrent
 Торрент: Платиновая раздача  Зарегистрирован
 
Скачать


Примагнититься
 Зарегистрирован:   11 Июн 2013 17:56:13
 Размер:   745 MB  (
 Рейтинг:   4.8 (Голосов: 99)
 Поблагодарили:   313
 Проверка:   Оформление проверено модератором 12 Июн 2013 11:38:27
Как cкачать  ·  Как раздать  ·  Правильно оформить  ·  Поднять ратио!  
Артем Ивочкин
 
Стаж: 13 лет 6 мес.
Сообщений: 979
Ratio: 47.938
Поблагодарили: 5483
100%
russia.gif
Как же, как же, смотрел...
Фильм однозначно впечатлил. Жаль, что это Голливуд. У европейского кинематографа та же тема получше бы получилось.
Рекомендую к просмотру однозначно.
Детям до 12 смотреть не надо - сексуальных сцен нет, но сцен насилия и жестокости предостаточно.

_________________
с уважением.
scoobedoo
Стаж: 13 лет 3 мес.
Сообщений: 148
Ratio: 4.384
40.88%
Откуда: Санкт-Петербург
russia.gif
На удивление добротный фильм. Не мало огрехов в сценарии, но в целом очень не плохо. Хорошо бы снять продолжение, т.к. концовка его подразумевает... И, кстати, фильм не голливудский, это снято в ЮАР.
наёмник
Стаж: 13 лет 10 мес.
Сообщений: 66
Ratio: 4.263
2.4%
прикольный фильм!
Mikus_13
Стаж: 10 лет 11 мес.
Сообщений: 6
Ratio: 11.874
0%
класс!!!посмотрел на одном дыхании ...
souzpromles
Стаж: 13 лет 8 мес.
Сообщений: 30
Ratio: 0.265
100%
russia.gif
Однозначно просится продолжение,фильм на 5+
kcuvvly
Стаж: 12 лет 3 мес.
Сообщений: 92
Ratio: 14.73
100%
отличный!ощущение,будто документалка
***Maximus***
Стаж: 12 лет 11 мес.
Сообщений: 9
Ratio: 2.211
0.26%
russia.gif
люди кто знает будет продолжение
Vsadnik_SVK
Стаж: 13 лет 4 мес.
Сообщений: 267
Ratio: 83.099
Поблагодарили: 76
100%
pirates.png
Смотрел почти сразу после премьеры, на одном дыхании.Продолжение бы...
VVKanzler
Стаж: 13 лет 1 мес.
Сообщений: 4
Ratio: 0.617
30.73%
Откуда: Moscow
russia.gif
****** фильмец! извините за мат

 !  Примечание от Alex_shadow:
Всем участникам форума запрещается:
2.2. Использовать в общении на форуме нецензурную брань или эвфемизмы, обсценную лексику и фразеологию, включая завуалированный мат, а также любое их цитирование.

На первый раз прощаю. Устное предупреждение.
dm345
Стаж: 11 лет 6 мес.
Сообщений: 160
Ratio: 0.382
24.09%
Фильм оставляет сильное впечатление (далеко не веселое). По моему это не боевик и не триллер, скорее психологическая и социальная драма на примере фантастического сюжета.
Показать сообщения:   
Начать новую тему   Ответить на тему    Торрент-трекер NNM-Club -> Зарубежное кино -> Зарубежные Фильмы (SD) Часовой пояс: GMT + 3
Страница 1 из 1