Классический форум-трекер
canvas not supported
Нас вместе: 4 233 498

Хоббит / The Hobbit (1977) DVDRip


 
 
RSS
Начать новую тему   Ответить на тему    Торрент-трекер NNM-Club -> Мультфильмы -> Зарубежные Мультфильмы 20-го века (SD)
Автор Сообщение
Marioxo ®
Стаж: 11 лет 5 мес.
Сообщений: 61
Ratio: 8.309
Раздал: 3.58 TB
Поблагодарили: 10500
100%
russia.gif
Хоббит / The Hobbit (1977) DVDRip
Русское название: Хоббит
Оригинальное название: The Hobbit
Год выпуска: 1977
Производство: США
Жанр: Приключения, Фэнтези

Описание:
Экранизация сказки Дж. Р. Р. Толкина о необычайном путешествии хоббита Бильбо Бэггинса, волшебника Гэндальфа и компании гномов к Одинокой горе, где дракон Смог сторожит сокровища, исконно принадлежащие гномам.



Режиссер: Джулз Басс, Артур Ранкин мл.
Персонажи: Орсон Бин, Джон Хьюстон, Уильям Конрад

Продолжительность: 01:17:24
Перевод: Многоголосый закадровый
Язык субтитров: Отсутствуют

Видеокодек: Xvid
Битрейт видео: ~1130 kbps
Размер кадра: 640x480
Качество видео: DVDRip
Аудиокодек: MP3 2.0
Битрейт аудио: 128 kbps
Общее
Полное имя : D:\Торренты на раздачу\Хоббит\The_Hobbit_1977.avi
Формат : AVI
Формат/Информация : Audio Video Interleave
Размер файла : 668 Мбайт
Продолжительность : 1 ч. 17 м.
Общий поток : 1206 Кбит/сек
Программа кодирования : 3GP_Converter

Видео
Идентификатор : 0
Формат : xvid
Идентификатор кодека : xvid
Продолжительность : 1 ч. 17 м.
Битрейт : 1130 Кбит/сек
Ширина : 640 пикселей
Высота : 480 пикселей
Соотношение сторон : 4:3
Частота кадров : 23,976 кадра/сек
Бит/(Пиксели*Кадры) : 0.153
Размер потока : 626 Мбайт (94%)

Аудио
Идентификатор : 1
Формат : MPEG Audio
Версия формата : Version 1
Профиль формата : Layer 3
Режим : Joint stereo
Расширение режима : MS Stereo
Идентификатор кодека : 55
Идентификатор кодека/Подсказка : MP3
Продолжительность : 1 ч. 17 м.
Вид битрейта : Постоянный
Битрейт : 64,0 Кбит/сек
Каналы : 2 канала
Частота : 44,1 КГц
Метод сжатия : С потерями
Размер потока : 35,4 Мбайт (5%)
Выравнивание : Соединение по промежуткам
Продолжительность промежутка : 26 мс. (0,63 видеокадр)
Время предзагрузки промежутка : 26 мс.
Библиотека кодирования : LAMEUUULAME3.96.1
Скриншоты:


Все релизы "Хоббит" на сайте

Время раздачи: ~ С 14:00 до 03:00 (10-15 скачавших)
[NNM-Club.ru]_The_Hobbit_1977.torrent
 Торрент: Платиновая раздача  Зарегистрирован
 
Скачать


Примагнититься
 Зарегистрирован:   11 Июн 2013 18:49:49
 Размер:   668 MB  (
 Рейтинг:   4.8 (Голосов: 34)
 Поблагодарили:   159
 Проверка:   Оформление проверено модератором 11 Июн 2013 20:15:14
Как cкачать  ·  Как раздать  ·  Правильно оформить  ·  Поднять ратио!  
nervnet
Стаж: 12 лет 10 мес.
Сообщений: 1140
Ratio: 140.576
Раздал: 33.21 TB
Поблагодарили: 26363
100%
ussr.gif
помню этот мультфильм, особенно заглавную песню еще с тем гундосым переводом, почему-то он мне всегда казался крайне депрессивным и тяжелым, но при этом у мультфильма свой шарм)

_________________
stay true
Выкладываю только то, что нравится самому.
Всё музло для ознакомления: скачал-послушал-купил!!
Показать сообщения:   
Начать новую тему   Ответить на тему    Торрент-трекер NNM-Club -> Мультфильмы -> Зарубежные Мультфильмы 20-го века (SD) Часовой пояс: GMT + 3
Страница 1 из 1