Классический форум-трекер
canvas not supported
Нас вместе: 4 233 677

Шутки в сторону / De l'autre cote du periph (2012) BDRip


 
 
RSS
Начать новую тему   Ответить на тему    Торрент-трекер NNM-Club -> Зарубежное кино -> Зарубежные Фильмы (SD)
Автор Сообщение
Marioxo ®
Стаж: 11 лет 6 мес.
Сообщений: 61
Ratio: 8.309
Раздал: 3.58 TB
Поблагодарили: 10500
100%
russia.gif
Шутки в сторону / De l'autre cote du periph (2012) BDRip
Русское название: Шутки в сторону
Оригинальное название: De l'autre cote du periph
Год выпуска: 2012
Производство: Франция
Жанр: Комедия, Криминал, Детектив
Перевод: Дублированный
Субтитры: Отсутствуют

Дата мировой премьеры: 19 декабря 2012
Дата российской премьеры: 9 мая 2013, «Экспонента», «Арена»
Дата выхода DVD релиза: 17 июня 2013, «Новый Диск»

Режиссер: Давид Шарон / David Charhon
Актеры: Омар Си, Лоран Лафитт, Сабрина Уазани, Лионель Абелански, Юсеф Хаджди, Максим Мотт, Лео Леотье, Андре Маркон, Забу Брайтман, Патрик Боннель

Описание фильма:
Усман, дерзкий коп из парижского пригорода, и Франсуа, амбициозный столичный полицейский, объединяют усилия в расследовании убийства жены большого чиновника. Усман и Франсуа — разные. Усман живет по законам комедий с Эдди Мерфи, Франсуа обожает Бельмондо в «Профессионале» и «Смертельное оружие». Но расхождение в киновкусах — ничто, когда на кону громкое разоблачение коррупции в самых верхах и, конечно, дружба! Один плюс один = команда, а шутки — в сторону!



Продолжительность: 01:34:44
Качество видео: BDRip

Видеокодек: Xvid
Битрейт видео: ~1753 kbps
Размер кадра: 720x304
Аудиокодек: AC3 5.1
Битрейт аудио: 448 kbps
Общее
Полное имя : D:\Торренты на раздачу\Шутки в сторону\Shutki_v_storonu.avi
Формат : AVI
Формат/Информация : Audio Video Interleave
Размер файла : 1,46 Гбайт
Продолжительность : 1 ч. 34 м.
Общий поток : 2210 Кбит/сек
Программа кодирования : VirtualDubModRus 1.5.10.2 (build 2542/release)
Библиотека кодирования : VirtualDubMod build 2542/release

Видео
Идентификатор : 0
Формат : MPEG-4 Visual
Профиль формата : Advanced Simple@L5
Параметр BVOP формата : 1
Параметр QPel формата : Нет
Параметр GMC формата : Без точки перехода
Параметр матрицы формата : Выборочная
Идентификатор кодека : XVID
Идентификатор кодека/Подсказка : XviD
Продолжительность : 1 ч. 34 м.
Битрейт : 1753 Кбит/сек
Ширина : 720 пикселей
Высота : 304 пикселя
Соотношение сторон : 2,35:1
Частота кадров : 24,000 кадра/сек
Цветовое пространство : YUV
Субдискретизация насыщенности : 4:2:0
Битовая глубина : 8 бит
Тип развёртки : Прогрессивная
Метод сжатия : С потерями
Бит/(Пиксели*Кадры) : 0.334
Размер потока : 1,16 Гбайт (79%)
Библиотека кодирования : XviD 65

Аудио
Идентификатор : 1
Формат : AC-3
Формат/Информация : Audio Coding 3
Расширение режима : CM (complete main)
Параметр Endianness формата : Big
Идентификатор кодека : 2000
Продолжительность : 1 ч. 34 м.
Вид битрейта : Постоянный
Битрейт : 448 Кбит/сек
Каналы : 6 каналов
Расположение каналов : Front: L C R, Side: L R, LFE
Частота : 48,0 КГц
Битовая глубина : 16 бит
Метод сжатия : С потерями
Задержка видео : 1 с. 222 мс.
Размер потока : 304 Мбайт (20%)
Выравнивание : Разделение по промежуткам
Продолжительность промежутка : 42 мс. (1,00 видеокадр)
Время предзагрузки промежутка : 500 мс.
Заголовок : Dub
Скриншоты:


Все релизы "Шутки в сторону" на сайте

Время раздачи: ~ С 14:00 до 03:00 (10 - 15 скачавших)
[NNM-Club.ru]_Shutki_v_storonu.torrent
 Торрент: Платиновая раздача  Зарегистрирован
 
Скачать


Примагнититься
 Зарегистрирован:   18 Июн 2013 14:02:15
 Размер:   1.46 GB  (
 Рейтинг:   4.7 (Голосов: 128)
 Поблагодарили:   580
 Проверка:   Оформление проверено модератором 19 Июн 2013 04:15:08
Как cкачать  ·  Как раздать  ·  Правильно оформить  ·  Поднять ратио!  
Все равно АНИСЬКИН
Стаж: 11 лет
Сообщений: 185
Ratio: 1.203
Раздал: 607 GB
100%
Откуда: Краснодар
ussr.gif
Как фильм ???????
dirop
Стаж: 12 лет 2 мес.
Сообщений: 396
Ratio: 2.016
100%
Откуда: Брежнев
ussr.gif
этот негр реально бесит
NikoYar
Стаж: 14 лет 1 мес.
Сообщений: 111
Ratio: 6.798
98.11%
Фильм нормальный, разок посмотреть можно, а негр, да, переигрывает.
Rurik79
Стаж: 14 лет 8 мес.
Сообщений: 122
Ratio: 4.006
100%
Откуда: Омск
russia.gif
большинство французских комедий нравятся, но эта ваще полный бред и отстой. ИМХО.
Aleks-KMV
Стаж: 12 лет 10 мес.
Сообщений: 971
Ratio: 3.079
Поблагодарили: 54
96.58%
Откуда: Ессентуки
russia.gif
типичный французский фильм, сцена в клубе (борделе) порадовала! В итоге фильм на троечку!
Показать сообщения:   
Начать новую тему   Ответить на тему    Торрент-трекер NNM-Club -> Зарубежное кино -> Зарубежные Фильмы (SD) Часовой пояс: GMT + 3
Страница 1 из 1