Классический форум-трекер
canvas not supported
Нас вместе: 4 232 299

Iron Angel - 2 Albums (1985-1986) [FLAC|Lossless]<Speed Metal/Heavy/Thrash>


 
 
RSS
Начать новую тему   Ответить на тему    Торрент-трекер NNM-Club -> Rock, Alternative, Punk, Metal -> Metal (Lossless)
Автор Сообщение
Shuran80 ®
Свободный релизер
 
Стаж: 15 лет
Сообщений: 3351
Ratio: 1102.143
Раздал: 87.06 TB
Поблагодарили: 195376
100%
Откуда: Ленинград
ussr.gif
Iron Angel - 2 Albums (1985-1986)
Год: 1985-1986
Жанр: Speed Metal/Heavy/Thrash
Страна: Германия
Продолжительность: 02:19:46

Кодек: FLAC (image+.cue)
Битрейт: Lossless

Описание:
Iron Angel - метал группа из Гамбурга, исполнявшая музыку на стыке трэша и спид-хэви металла. Её будущие участники ещё с юношеских лет тяготели к тяжёлой музыке, а их кумирами были такие группы как Judas Priest, Kiss и Motörhead. Начало истории было положено в 1980 году, когда организовалась школьная команда Metal Gods, куда входили барабанщик Майк Маттес и бас-гитарист Торстен Лохманн. Прошло некоторое время, и вывеску поменяли на Iron Angel, словосочетание, которое вычитал Маттес в одной из старинных новелл...
Треклист:
01. The Metallian (4:19)
02. Sinner 666 (2:53)
03. Black Mass (5:51)
04. The Church of the Last Souls (3:14)
05. Hunter in Chains (4:40)
06. Rush of Power (3:27)
07. Legions of Evil (4:56)
08. Wife of the Devil (3:50)
09. Nightmare (5:27)
10. Heavy Metal Soldier (3:08)
11. Open the Gate / Devil's Gate (Demo) (5:01)
12. Rush of Power (Demo) (3:41)
13. Maniac of the Night (Demo) (4:39)
14. Sea of Flames (Demo) (3:11)
15. Wife of the Devil (Demo) (4:11)
16. Hounds of Hell (Demo) (6:29)

Продолжительность: 01:08:58
Код: выделить все

Exact Audio Copy V1.0 beta 3 from 29. August 2011

Отчёт EAC об извлечении, выполненном 22. декабря 2012, 16:24

Iron Angel / Hellish Crossfire

Дисковод: Optiarc DVD RW AD-7200A   Adapter: 0  ID: 0

Режим чтения                 : Достоверность
Использование точного потока : Да
Отключение кэша аудио        : Да
Использование указателей C2  : Нет

Коррекция смещения при чтении                     : 48
Способность читать области Lead-in и Lead-out     : Нет
Заполнение пропущенных сэмплов тишиной            : Да
Удаление блоков с тишиной в начале и конце        : Нет
При вычислениях CRC использовались нулевые сэмплы : Да
Интерфейс                                         : Встроенный Win32-интерфейс для Win NT/2000

Выходной формат          : Пользовательский кодировщик
Выбранный битрейт        : 128 kBit/s
Качество                 : Высокий
Добавление ID3-тега      : Нет
Утилита сжатия           : C:\Program Files\FLAC\FLAC frontend.exe

TOC извлечённого CD

     Трек |   Старт  | Длительность | Начальный сектор | Конечный сектор
    ---------------------------------------------------------------------
       1  |  0:00.00 |    4:19.24   |           0      |      19448
       2  |  4:19.24 |    2:52.41   |       19449      |      32389
       3  |  7:11.65 |    5:50.67   |       32390      |      58706
       4  | 13:02.57 |    3:13.65   |       58707      |      73246
       5  | 16:16.47 |    4:39.66   |       73247      |      94237
       6  | 20:56.38 |    3:27.19   |       94238      |     109781
       7  | 24:23.57 |    4:56.14   |      109782      |     131995
       8  | 29:19.71 |    3:50.33   |      131996      |     149278
       9  | 33:10.29 |    5:27.37   |      149279      |     173840
      10  | 38:37.66 |    3:07.46   |      173841      |     187911
      11  | 41:45.37 |    5:01.34   |      187912      |     210520
      12  | 46:46.71 |    3:41.32   |      210521      |     227127
      13  | 50:28.28 |    4:39.05   |      227128      |     248057
      14  | 55:07.33 |    3:11.10   |      248058      |     262392
      15  | 58:18.43 |    4:10.50   |      262393      |     281192
      16  | 62:29.18 |    6:29.00   |      281193      |     310367

Характеристики диапазона извлечения и сообщения об ошибках

Выбранный диапазон

     Имя файла D:\МОИ ФАЙЛЫ\LOSSLESS\slayer19\Iron Angel - Hellish Crossfire.wav

     Пиковый уровень 100.0 %
     Скорость извлечения 4.1 X
     Качество диапазона 100.0 %
     CRC теста 622E3A9E
     CRC копии 622E3A9E
     Копирование... OK

Ошибок не произошло

AccurateRip: сводка

Трек  1  : извлечено точно (доверие 3)  [B71B3647]  (AR v1)
Трек  2  : извлечено точно (доверие 3)  [C276D19C]  (AR v1)
Трек  3  : извлечено точно (доверие 3)  [29E3BCBD]  (AR v1)
Трек  4  : извлечено точно (доверие 3)  [24875C4D]  (AR v1)
Трек  5  : извлечено точно (доверие 3)  [BAC2CF26]  (AR v1)
Трек  6  : извлечено точно (доверие 3)  [B3F43122]  (AR v1)
Трек  7  : извлечено точно (доверие 3)  [A34F03C7]  (AR v1)
Трек  8  : извлечено точно (доверие 3)  [13447EBA]  (AR v1)
Трек  9  : извлечено точно (доверие 3)  [FEA6B86A]  (AR v1)
Трек 10  : извлечено точно (доверие 3)  [4D46991A]  (AR v1)
Трек 11  : извлечено точно (доверие 3)  [79803197]  (AR v1)
Трек 12  : извлечено точно (доверие 3)  [C8A28BB6]  (AR v1)
Трек 13  : извлечено точно (доверие 3)  [07CF39D9]  (AR v1)
Трек 14  : извлечено точно (доверие 3)  [B0873AA4]  (AR v1)
Трек 15  : извлечено точно (доверие 3)  [ED6673F8]  (AR v1)
Трек 16  : извлечено точно (доверие 3)  [C98AA66F]  (AR v1)

Все треки извлечены точно

Конец отчёта

---- CUETools DB Plugin V2.1.3

[CTDB TOCID: 7VaTK08emctxwYZfD32mmXd9pnU-] found, Submit result: 7VaTK08emctxwYZfD32mmXd9pnU- has been confirmed
[5d88778c] (4/4) Accurately ripped

==== Контрольная сумма отчёта 0BABCA1648FF1BD8E352158E5EEC9054C8000A978860E09D0B9723F6959E8E4D ====

Код: выделить все

-----------------------

DON'T MODIFY THIS FILE

-----------------------

PERFORMER: auCDtect Task Manager, ver. 1.5.1RC4 build 1.5.1.5
Copyright (c) 2008-2010 y-soft. All rights reserved
http://y-soft.org

ANALYZER: auCDtect: CD records authenticity detector, version 0.8.2
Copyright (c) 2004 Oleg Berngardt. All rights reserved.
Copyright (c) 2004 Alexander Djourik. All rights reserved.

FILE: Iron Angel - Hellish Crossfire.flac
  Size: 467755701 Hash: D610B510620BF48BBBB6E7A635F35371 Accuracy: -m0
  Conclusion: MPEG 95%
  Signature: 3A8CEA91E2680BA95BC1B04D2FC0911BCABE52D0

Треклист:
01. Winds of War (2:19)
02. Metalstorm (3:33)
03. Son of a Bitch (3:34)
04. Vicious (4:22)
05. Born to Rock (4:01)
06. Fight for Your Life (4:37)
07. Stronger Than Steel (5:58)
08. Sea of Flames (5:22)
09. Creatures of Destruction (4:21)
10. Back to the Silence (1:59)
11. The Metallian (Live '85) (4:36)
12. Sinner 666 (Live '85) (2:46)
13. Black Mass (Live '85) (5:52)
14. The Church of Lost Souls (Live '85) (3:36)
15. Rush of Power (Live '85) (3:20)
16. Hunter Chains (Live '85) (5:13)
17. Legions of Evil (Live '85) (5:19)

Продолжительность: 01:10:48
Код: выделить все

Exact Audio Copy V1.0 beta 3 from 29. August 2011

Отчёт EAC об извлечении, выполненном 22. декабря 2012, 19:51

Iron Angel / Winds of War

Дисковод: Optiarc DVD RW AD-7200A   Adapter: 0  ID: 0

Режим чтения                 : Достоверность
Использование точного потока : Да
Отключение кэша аудио        : Да
Использование указателей C2  : Нет

Коррекция смещения при чтении                     : 48
Способность читать области Lead-in и Lead-out     : Нет
Заполнение пропущенных сэмплов тишиной            : Да
Удаление блоков с тишиной в начале и конце        : Нет
При вычислениях CRC использовались нулевые сэмплы : Да
Интерфейс                                         : Встроенный Win32-интерфейс для Win NT/2000

Выходной формат          : Пользовательский кодировщик
Выбранный битрейт        : 128 kBit/s
Качество                 : Высокий
Добавление ID3-тега      : Нет
Утилита сжатия           : C:\Program Files\FLAC\FLAC frontend.exe

TOC извлечённого CD

     Трек |   Старт  | Длительность | Начальный сектор | Конечный сектор
    ---------------------------------------------------------------------
       1  |  0:00.00 |    2:19.15   |           0      |      10439
       2  |  2:19.15 |    3:32.71   |       10440      |      26410
       3  |  5:52.11 |    3:34.01   |       26411      |      42461
       4  |  9:26.12 |    4:22.13   |       42462      |      62124
       5  | 13:48.25 |    4:00.65   |       62125      |      80189
       6  | 17:49.15 |    4:36.54   |       80190      |     100943
       7  | 22:25.69 |    5:58.03   |      100944      |     127796
       8  | 28:23.72 |    5:22.20   |      127797      |     151966
       9  | 33:46.17 |    4:20.71   |      151967      |     171537
      10  | 38:07.13 |    1:58.66   |      171538      |     180453
      11  | 40:06.04 |    4:36.14   |      180454      |     201167
      12  | 44:42.18 |    2:46.28   |      201168      |     213645
      13  | 47:28.46 |    5:52.00   |      213646      |     240045
      14  | 53:20.46 |    3:35.45   |      240046      |     256215
      15  | 56:56.16 |    3:20.04   |      256216      |     271219
      16  | 60:16.20 |    5:12.70   |      271220      |     294689
      17  | 65:29.15 |    5:18.62   |      294690      |     318601

Характеристики диапазона извлечения и сообщения об ошибках

Выбранный диапазон

     Имя файла D:\МОИ ФАЙЛЫ\LOSSLESS\slayer19\Iron Angel - Winds of War.wav

     Пиковый уровень 98.8 %
     Скорость извлечения 4.2 X
     Качество диапазона 100.0 %
     CRC теста 23F4327D
     CRC копии 23F4327D
     Копирование... OK

Ошибок не произошло

AccurateRip: сводка

Трек  1  : извлечено точно (доверие 4)  [0A4838AA]  (AR v1)
Трек  2  : извлечено точно (доверие 4)  [7CEF797D]  (AR v1)
Трек  3  : извлечено точно (доверие 4)  [D5A671F6]  (AR v1)
Трек  4  : извлечено точно (доверие 4)  [4B3C7690]  (AR v1)
Трек  5  : извлечено точно (доверие 4)  [4588CA56]  (AR v1)
Трек  6  : извлечено точно (доверие 4)  [CC04C474]  (AR v1)
Трек  7  : извлечено точно (доверие 4)  [66A4C03D]  (AR v1)
Трек  8  : извлечено точно (доверие 4)  [0E9BF7BA]  (AR v1)
Трек  9  : извлечено точно (доверие 4)  [87EA708D]  (AR v1)
Трек 10  : извлечено точно (доверие 4)  [FDA4FA6F]  (AR v1)
Трек 11  : извлечено точно (доверие 4)  [CC1D5C40]  (AR v1)
Трек 12  : извлечено точно (доверие 4)  [D7DC7491]  (AR v1)
Трек 13  : извлечено точно (доверие 4)  [BF8F4A4B]  (AR v1)
Трек 14  : извлечено точно (доверие 4)  [48F28BBD]  (AR v1)
Трек 15  : извлечено точно (доверие 4)  [2BE3BBD4]  (AR v1)
Трек 16  : извлечено точно (доверие 4)  [6EAF54E6]  (AR v1)
Трек 17  : извлечено точно (доверие 4)  [76FC41C2]  (AR v1)

Все треки извлечены точно

Конец отчёта

---- CUETools DB Plugin V2.1.3

[CTDB TOCID: yUScjBgDwoJmyjVMvwrW5O01Iew-] disk not present in database, Submit result: yUScjBgDwoJmyjVMvwrW5O01Iew- has been uploaded

==== Контрольная сумма отчёта EE7242A33637D6F6D1DB79A25A5B4813779F96B63CE65098FBB296AB0DAA76DE ====

Код: выделить все

-----------------------

DON'T MODIFY THIS FILE

-----------------------

PERFORMER: auCDtect Task Manager, ver. 1.5.1RC4 build 1.5.1.5
Copyright (c) 2008-2010 y-soft. All rights reserved
http://y-soft.org

ANALYZER: auCDtect: CD records authenticity detector, version 0.8.2
Copyright (c) 2004 Oleg Berngardt. All rights reserved.
Copyright (c) 2004 Alexander Djourik. All rights reserved.

FILE: Iron Angel - Winds of War.flac
  Size: 511776199 Hash: 6AD19FC7783F7D5C0C5A2DCF49F0873B Accuracy: -m0
  Conclusion: MPEG 95%
  Signature: EC5895F0E855ECE324732604BD1991478CC1573A

Время раздачи: Обычно С 19:00 до 00:00 :спит:


Поглощение/вытеснение
Только с согласия релизера

Bigbeer
[NNMClub.to]_Iron Angel - 2 Albums (1985-1986) FLAC.torrent
 Торрент: Платиновая раздача  Зарегистрирован
 
Скачать


Примагнититься
 Зарегистрирован:   17 Июн 2020 17:42:18
 Размер:   1008 MB  (
 Рейтинг:   4.8 (Голосов: 19)
 Поблагодарили:   66
 Проверка:   Оформление проверено модератором 18 Июн 2020 23:17:34
Как cкачать  ·  Как раздать  ·  Правильно оформить  ·  Поднять ратио!  

_________________
Внимание! Временно отсутствую на своих раздачах. Просьба понять и простить.
Shuran80 ®
Свободный релизер
 
Стаж: 15 лет
Сообщений: 3351
Ratio: 1102.143
Раздал: 87.06 TB
Поблагодарили: 195376
100%
Откуда: Ленинград
ussr.gif
К сожалению переиздания 2004 года, но для ознакомления с творчеством подойдёт.
За предоставленные рипы спасибо slayer19.

_________________
Внимание! Временно отсутствую на своих раздачах. Просьба понять и простить.
MikeTis
Стаж: 14 лет 4 мес.
Сообщений: 59
Ratio: 6.458
100%
Откуда: Зеленоград
russia.gif
раритетец, однако!
большое спасибо!!!

_________________
Never stop exploring!!!
monotype
Стаж: 14 лет 11 мес.
Сообщений: 137
Ratio: 1729.154
100%
как же они мне нравились.... а ещё содом, дистракшен, овер килл, сепультура, протектор, креатор. эээх где ты молодость моя... восьмидесятые. ностальгия.
J_Man
Сталкер
Стаж: 15 лет 2 мес.
Сообщений: 6942
Ratio: 27.685
Поблагодарили: 13655
100%
pirates.png
Да. Нетленка. Не прибавить и не отнять :)

_________________
Всё вероятно о неизвестном...
foxikru
Стаж: 12 лет 6 мес.
Сообщений: 404
Ratio: 33.572
100%
Откуда: Ленинград
ussr.gif
Нашел что искал и фиг скачать...
Показать сообщения:   
Начать новую тему   Ответить на тему    Торрент-трекер NNM-Club -> Rock, Alternative, Punk, Metal -> Metal (Lossless) Часовой пояс: GMT + 3
Страница 1 из 1