Классический форум-трекер
canvas not supported
Нас вместе: 4 114 377

Гарри Поттер и тайная комната / Harry Potter And The Chamber Of Secrets (2002) DVDRip [Extended Cut]


 
 
RSS
Начать новую тему   Ответить на тему    Торрент-трекер NNM-Club -> Зарубежное кино -> Зарубежные Фильмы (HD*Rip/LQ, DVDRip, SATRip, VHSRip)
Автор Сообщение
MAG3131 ®
Стаж: 8 лет 3 мес.
Сообщений: 3492
Ratio: 373,86
Поблагодарили: 95469
100%
Откуда: Санкт-Петербург
russia.gif
Гарри Поттер и тайная комната (Расширенная версия) / Harry Potter And The Chamber Of Secrets (Extended Cut) (2002) DVDRip
Русское название: Гарри Поттер и тайная комната (Расширенная версия)
Оригинальное название: Harry Potter And The Chamber Of Secrets (Extended Cut)
Год выпуска: 2002
Жанр: Приключения, Семейный, Фэнтези

Описание фильма:
Гарри Поттер переходит на второй курс Школы чародейства и волшебства Хогвартс. Эльф Добби предупреждает Гарри об опасности, которая поджидает его там, и просит больше не возвращаться в школу.
Юный волшебник не следует совету эльфа и становится свидетелем таинственных событий, разворачивающихся в Хогвартсе. Вскоре Гарри и его друзья узнают о существовании Тайной Комнаты и сталкиваются с новыми приключениями, пытаясь победить темные силы.

Режиссер: Крис Коламбус
Актеры: Дэниэл Рэдклифф, Руперт Гринт, Эмма Уотсон, Ричард Гриффитс, Фиона Шоу, Гарри Меллинг

Продолжительность: 02:51:25
Перевод: Дублированный



Дата мировой премьеры: 03.11.2002
Дата российской премьеры: 26.12.2002
Дата выхода DVD релиза: 23.06.2009

Видеокодек: Xvid
Битрейт видео: ~1430 kbps avg
Размер кадра: 720x304
Качество видео: DVDRip

Аудио: 48 kHz, AC3 Dolby Digital, 3/2 (L,C,R,l,r) + LFE ch, 384 kbps
Профессиональный (полное дублирование)
Расширенная версия была получена путем врезания удаленных и расширенных сцен на свои места.
Добавленные сцены не отличаются по качеству видео от самого фильма.
Общее
Полное имя : E:\торренты на раздаче\Гарри Поттер 2 - Тайная Комната (Extended).avi
Формат : AVI
Формат/Информация : Audio Video Interleave
Профиль формата : OpenDML
Размер файла : 2,19 Гбайт
Продолжительность : 2 ч. 51 м.
Общий поток : 1827 Кбит/сек
Программа кодирования : VirtualDubModRus 1.5.10.2 (build 2542/release)
Библиотека кодирования : VirtualDubMod build 2542/release

Видео
Идентификатор : 0
Формат : MPEG-4 Visual
Профиль формата : Advanced Simple@L5
Параметр BVOP формата : 1
Параметр QPel формата : Нет
Параметр GMC формата : Без точки перехода
Параметр матрицы формата : Выборочная
Идентификатор кодека : XVID
Идентификатор кодека/Подсказка : XviD
Продолжительность : 2 ч. 51 м.
Битрейт : 1430 Кбит/сек
Ширина : 720 пикселей
Высота : 304 пикселя
Соотношение сторон : 2,35:1
Частота кадров : 25,000 кадров/сек
Цветовое пространство : YUV
Субдискретизация насыщенности : 4:2:0
Битовая глубина : 8 бит
Тип развёртки : Прогрессивная
Метод сжатия : С потерями
Бит/(Пиксели*Кадры) : 0.261
Размер потока : 1,71 Гбайт (78%)
Библиотека кодирования : XviD 1.2.1 (UTC 2008-12-04)

Аудио
Идентификатор : 1
Формат : AC-3
Формат/Информация : Audio Coding 3
Расширение режима : CM (complete main)
Параметр Endianness формата : Big
Идентификатор кодека : 2000
Продолжительность : 2 ч. 51 м.
Вид битрейта : Постоянный
Битрейт : 384 Кбит/сек
Каналы : 6 каналов
Расположение каналов : Front: L C R, Side: L R, LFE
Частота : 48,0 КГц
Битовая глубина : 16 бит
Метод сжатия : С потерями
Размер потока : 471 Мбайт (21%)
Выравнивание : Разделение по промежуткам
Продолжительность промежутка : 40 мс. (1,00 видеокадр)
Время предзагрузки промежутка : 500 мс.
Скриншоты:


Время раздачи: по возможности 24/7
[NNM-Club.ru]_Garri Potter 2 - Taynaya Komnata (Extended).avi.torrent
 Торрент: Платиновая раздача  Зарегистрирован
 
Скачать


Примагнититься
 Зарегистрирован:   19 Июн 2013 01:50:47
 Размер:   2,19 GB  (
 Рейтинг:   4,8 (Голосов: 168)
 Поблагодарили:   700
 Проверка:   Оформление проверено модератором 20 Июн 2013 13:09:28
Как cкачать  ·  Как раздать  ·  Правильно оформить  ·  Поднять ратио!  
Rikitiki999
Стаж: 7 лет 2 мес.
Сообщений: 57
Ratio: 4,073
Поблагодарили: 76
100%
Простите, но хотелось бы точнее знать кем и за счёт чего "РАСШИРЕНА" эта версия? Откуда взяты материалы для создания "расширенной версии"? А тот как-то не до конца понятно.
MAG3131 ®
Стаж: 8 лет 3 мес.
Сообщений: 3492
Ratio: 373,86
Поблагодарили: 95469
100%
Откуда: Санкт-Петербург
russia.gif
доп. материалы взяты с лицензионного диска.
McDuck
Стаж: 10 лет 9 мес.
Сообщений: 25
Ratio: 2,153
Поблагодарили: 34
100%
russia.gif
MAG3131 писал(а): Перейти к сообщению
доп. материалы взяты с лицензионного диска.

Если не секрет, где заказывали/покупали такой диск, рип сами делали? Спасибо, давно искал. Видел BDRip-ы со вставками, но без перевода, а тут всё как надо.
KINOPOISK
Стаж: 6 лет 6 мес.
Сообщений: 16
Ratio: 7,954
5.84%
russia.gif
Большое спасибо за расширенные версии
Показать сообщения:   
Начать новую тему   Ответить на тему    Торрент-трекер NNM-Club -> Зарубежное кино -> Зарубежные Фильмы (HD*Rip/LQ, DVDRip, SATRip, VHSRip) Часовой пояс: GMT + 3
Страница 1 из 1