Классический форум-трекер
canvas not supported
Нас вместе: 4 233 687

Инопланетянин / E.T. the Extra-Terrestrial (1982) HDTVRip


 
 
RSS
Начать новую тему   Ответить на тему    Торрент-трекер NNM-Club -> Видео, Кино и Сериалы для детей и родителей -> Зарубежные Фильмы и Сериалы для детей (SD)
Автор Сообщение
Marioxo ®
Стаж: 11 лет 6 мес.
Сообщений: 61
Ratio: 8.309
Раздал: 3.58 TB
Поблагодарили: 10500
100%
russia.gif
Инопланетянин / E.T. the Extra-Terrestrial (1982) HDTVRip
Русское название: Инопланетянин
Оригинальное название: E.T. the Extra-Terrestrial
Год выпуска: 1982
Страна: США
Жанр: Фантастика, Приключения, Семейный

Описание фильма:
Инопланетянин, телом похожий на черепаху без панциря, а мордочкой одновременно на мопса и Альберта Эйнштейна, прилетел на землю с мирными намерениями — в составе научно-исследовательской группы. Специалисты из NASA заметили приближение летающей тарелки и посчитали, что просто обязаны отловить хотя бы одну из инопланетных тварей.
Несчастные существа были вынуждены ретироваться настолько спешно, что забыли захватить одного из коллег. Земной мальчик Эллиот, а также его брат и сестра, которую играет семилетняя Дрю Бэрримор, преодолевая отвращение к неприятно выглядящей твари, спасают ее.



Режиссер: Стивен Спилберг / Steven Spielberg
Актеры: Ди Уоллес-Стоун, Хенри Томас, Питер Койот, Роберт МакНотон, Дрю Бэрримор, Дэвид О'Делл, Том Хауэлл, Шон Фрай, К. С. Мартел, Эрика Элениак

Продолжительность: 01:59:54
Качество видео: HDTVRip
Перевод: Дублированный
Язык субтитров: Отсутствуют

Дата мировой премьеры: 26 мая 1982
Дата российской премьеры: 29 августа 2002, «Ист-Вест»
Дата выхода Blu-Ray релиза: 25 октября 2012, «Двадцатый Век Фокс СНГ»

Видеокодек: Xvid
Битрейт видео: ~750 kbps avg
Размер кадра: 624x352
Аудиокодек: MP3 2.0
Битрейт аудио: 112 kbps avg
Общее
Полное имя : E:\Торренты на раздачу\Инопланетянин\Inoplanetjanin.avi
Формат : AVI
Формат/Информация : Audio Video Interleave
Размер файла : 747 Мбайт
Продолжительность : 1 ч. 59 м.
Общий поток : 872 Кбит/сек
Программа кодирования : VirtualDubMod 1.5.10.2 (build 2540/release)
Библиотека кодирования : VirtualDubMod build 2540/release

Видео
Идентификатор : 0
Формат : MPEG-4 Visual
Профиль формата : Advanced Simple@L5
Параметр BVOP формата : 1
Параметр QPel формата : Нет
Параметр GMC формата : Без точки перехода
Параметр матрицы формата : Выборочная
Идентификатор кодека : XVID
Идентификатор кодека/Подсказка : XviD
Продолжительность : 1 ч. 59 м.
Битрейт : 750 Кбит/сек
Ширина : 624 пикселя
Высота : 352 пикселя
Соотношение сторон : 16:9
Частота кадров : 23,976 кадра/сек
Цветовое пространство : YUV
Субдискретизация насыщенности : 4:2:0
Битовая глубина : 8 бит
Тип развёртки : Прогрессивная
Метод сжатия : С потерями
Бит/(Пиксели*Кадры) : 0.142
Размер потока : 643 Мбайт (86%)
Библиотека кодирования : XviD 1.2.1 (UTC 2008-12-04)

Аудио
Идентификатор : 1
Формат : MPEG Audio
Версия формата : Version 1
Профиль формата : Layer 3
Идентификатор кодека : 55
Идентификатор кодека/Подсказка : MP3
Продолжительность : 1 ч. 59 м.
Вид битрейта : Постоянный
Битрейт : 112 Кбит/сек
Каналы : 2 канала
Частота : 48,0 КГц
Метод сжатия : С потерями
Размер потока : 96,1 Мбайт (13%)
Выравнивание : Соединение по промежуткам
Продолжительность промежутка : 42 мс. (1,00 видеокадр)
Время предзагрузки промежутка : 504 мс.
Библиотека кодирования : LAME3.98r
Настройки программы : -m s -V 4 -q 2 -lowpass 15.6 -b 112
Скриншоты:


Все релизы "Инопланетянин" на сайте

Время раздачи: Время раздачи: ~ С 14:00 до 03:00 (10-15 скачавших)
[NNM-Club.ru]_Inoplanetjanin.torrent
 Торрент: Платиновая раздача  Зарегистрирован
 
Скачать


Примагнититься
 Зарегистрирован:   27 Июн 2013 20:08:03
 Размер:   747 MB  (
 Рейтинг:   4.9 (Голосов: 22)
 Поблагодарили:   86
 Проверка:   Оформление проверено модератором 28 Июн 2013 06:47:53
Как cкачать  ·  Как раздать  ·  Правильно оформить  ·  Поднять ратио!  
Показать сообщения:   
Начать новую тему   Ответить на тему    Торрент-трекер NNM-Club -> Видео, Кино и Сериалы для детей и родителей -> Зарубежные Фильмы и Сериалы для детей (SD) Часовой пояс: GMT + 3
Страница 1 из 1