Классический форум-трекер
canvas not supported
Нас вместе: 4 232 957

Признайте меня виновным / Find Me Guilty (2006) BDRip


 
 
RSS
Начать новую тему   Ответить на тему    Торрент-трекер NNM-Club -> Зарубежное кино -> Зарубежные Фильмы (SD)
Автор Сообщение
Marioxo ®
Стаж: 11 лет 5 мес.
Сообщений: 61
Ratio: 8.309
Раздал: 3.58 TB
Поблагодарили: 10500
100%
russia.gif
Признайте меня виновным / Find Me Guilty (2006) BDRip
Год выпуска: 2006
Производство: США, Германия
Жанр: Криминал, Комедия, Драма

Описание фильма:
Когда полиции удается арестовать 20 членов мафиозного клана Луккези, Джеки ДиНоршио по прозвищу Толстяк Ди, уже отбывающий 30-летний тюремный срок, получает соблазнительное предложение: Джеки выйдет на волю досрочно, если даст показания против своих корешей. Но Толстяк Ди — не стукач!
На процессе, который станет самым долгим и самым скандальным судебным разбирательством в США, он будет защищать себя сам. Вступив в непредсказуемый и рискованный поединок с властями, этот наглец и остряк доведет суд до абсурда, обратит факты против своих обвинителей и добьется самого шокирующего вердикта в истории американского правосудия!

Режиссер: Сидни Люмет
Актеры: Вин Дизель, Питер Динклэйдж, Алекс Рокко, Фрэнк Пьетранголаре, Ричард ДеДоменико, Джерри Грэйсон, Тони Рэй Росси, Винни Велла, Пол Боргез, Фрэнк Адонис, Николас А. Пуччио, Фрэнки Перрон, Сальваторе Пол Пиро

Продолжительность: 02:04:30
Качество видео: BDRip
Перевод: Двуголосый закадровый
Язык субтитров: Отсутствуют



Дата мировой премьеры: 16 февраля 2006

Видеокодек: Xvid
Битрейт видео: ~698 kbps avg
Размер кадра: 624x352
Аудиокодек: MP3 2.0
Битрейт аудио: 128 kbps avg
Общее
Полное имя : E:\Торренты на раздачу\Признайте меня виновным\Find_Me_Guilty.avi
Формат : AVI
Формат/Информация : Audio Video Interleave
Размер файла : 745 Мбайт
Продолжительность : 2 ч. 4 м.
Общий поток : 836 Кбит/сек
Название фильма : Признайте меня виновным / Я виновен / Find Me Guilty [2006]
Программа кодирования : VirtualDubMod 1.5.10.3
Библиотека кодирования : VirtualDubMod build 2550/release

Видео
Идентификатор : 0
Формат : MPEG-4 Visual
Профиль формата : Advanced Simple@L5
Параметр BVOP формата : 2
Параметр QPel формата : Нет
Параметр GMC формата : Без точки перехода
Параметр матрицы формата : Выборочная
Идентификатор кодека : XVID
Идентификатор кодека/Подсказка : XviD
Продолжительность : 2 ч. 4 м.
Битрейт : 699 Кбит/сек
Ширина : 624 пикселя
Высота : 352 пикселя
Соотношение сторон : 16:9
Частота кадров : 23,976 кадра/сек
Частота кадров в оригинале : 24,000 кадра/сек
Цветовое пространство : YUV
Субдискретизация насыщенности : 4:2:0
Битовая глубина : 8 бит
Тип развёртки : Прогрессивная
Метод сжатия : С потерями
Бит/(Пиксели*Кадры) : 0.133
Размер потока : 622 Мбайт (84%)
Библиотека кодирования : XviD 65

Аудио
Идентификатор : 1
Формат : MPEG Audio
Версия формата : Version 1
Профиль формата : Layer 3
Режим : Joint stereo
Расширение режима : MS Stereo
Идентификатор кодека : 55
Идентификатор кодека/Подсказка : MP3
Продолжительность : 2 ч. 4 м.
Вид битрейта : Постоянный
Битрейт : 128 Кбит/сек
Каналы : 2 канала
Частота : 48,0 КГц
Метод сжатия : С потерями
Размер потока : 114 Мбайт (15%)
Выравнивание : Соединение по промежуткам
Продолжительность промежутка : 42 мс. (1,00 видеокадр)
Время предзагрузки промежутка : 504 мс.
Заголовок : RUS - DVO
Библиотека кодирования : LAME3.99r
Настройки программы : -m f -V 4 -q 0 -lowpass 17 -b 128
Скриншоты:


Все релизы "Признайте меня виновным" на сайте

Время раздачи: ~ С 14:00 до 03:00 (10-15 скачавших)
[NNM-Club.ru]_Find_Me_Guilty.torrent
 Торрент:   Зарегистрирован
 
Зарегистрируйтесь и скачайте торрент!
15 KB

Примагнититься
 Зарегистрирован:   28 Июн 2013 21:17:18
 Размер:   745 MB  (
 Рейтинг:   4.8 (Голосов: 36)
 Поблагодарили:   138
 Проверка:   Оформление проверено модератором 28 Июн 2013 22:36:47
Как cкачать  ·  Как раздать  ·  Правильно оформить  ·  Поднять ратио!  
KuROni
Стаж: 12 лет 8 мес.
Сообщений: 244
Ratio: 9.743
100%
russia.gif
мне нравится этот фильм, да ещё и Дизель сдесь в необычном амплуа
leonkarp
 
Стаж: 16 лет 7 мес.
Сообщений: 159
Ratio: 6.871
100%
spain.gif
"Я виновен" под таким названием увидел эту картину. Тем зауважал Дизеля, а то поднадоели эти крепыши-силачи, хоть ховайся. Нехай живе. :стрельба:
Murlakotamcheg
Стаж: 12 лет 3 мес.
Сообщений: 33
Ratio: 54.365
100%
Очень сильный фильм. Дизель в новом амплуа - просто красавчик!
Bori_Gleb
Стаж: 12 лет 10 мес.
Сообщений: 168
Ratio: 181.626
Раздал: 14.11 TB
Поблагодарили: 635
100%
ussr.gif
Согласен, Дизель необычно красавчик. Жаль, что его только в боевичных героях задействовали, а он еще и иронично-драматически умеет))

_________________
Понимать то, о чём споришь, совсем необязательно. (с) Бомарше :D
Показать сообщения:   
Начать новую тему   Ответить на тему    Торрент-трекер NNM-Club -> Зарубежное кино -> Зарубежные Фильмы (SD) Часовой пояс: GMT + 3
Страница 1 из 1