Классический форум-трекер
canvas not supported
Нас вместе: 4 235 081

Сахара / Sahara (2005) BDRip [720p] ATV


 
 
RSS
Начать новую тему   Ответить на тему    Торрент-трекер NNM-Club -> Аудио и Видео -> Зарубежное видео HD для устройств Apple
Автор Сообщение
gekka ®
Стаж: 17 лет 5 мес.
Сообщений: 2123
Ratio: 96.255
Поблагодарили: 135379
100%
Откуда: Москва, Дорогомилово
ussr.gif
Сахара / Sahara (2005) BDRip [720p] ATV
«Большое приключение. Большие деньги. Большие неприятности.»

Русское название: Сахара
Оригинальное название: Sahara
Год: 2005
Страна/Студия: Великобритания, Испания, Германия, США / © Paramount Pictures, Bristol Bay Productions, Baldwin Entertainment Group
Жанр: боевик, триллер, комедия, приключения
Продолжительность: 02:04:03
Перевод: Русский дублированный , одноголосый закадровый (В. Королёв), одноголосый закадровый (А. Гаврилов)
Субтитры / Язык субтитров: Русский, Английский
Навигация: по главам (с изображениями)
Рейтинг MPAA -PG
Режиссёр: Брек Айснер
В ролях: Мэттью МакКонахи, Пенелопа Крус, Стив Зан, Уильям Х. Мэйси, Делрой Линдо, Ленни Джеймс, Патрик Мэлахайд, Рэйн Уилсон, Ламбер Вильсон, Роберт Кавана

Описание: Неистребимая жажда приключений толкает Дирка Пита в одну из самых опасных областей Западной Африки. Поиск несметных сокровищ Нила сопровождается страшной тайной - засекреченный «корабль смерти» повинен в гибели людей.

Питу, вместе с другом, необходимо держать ухо востро, собрав воедино смекалку, мужество и героизм, чтобы помочь доктору Еве Рохас победить таинственную болезнь, уносящую человеческие жизни в результате действия и желания себе же подобных.

Видео: H.264, 23.976 fps, ~ 5501 kбит/сек, 1280x532 (2.40:1)
Аудио:
* АAС 2.0 192 kbps - Русский дублированный
* АС3 5.1 640 kbps - Русский дублированный
* АAС 2.0 192 kbps - Русский одноголосый закадровый (В. Королёв)
* АС3 5.1 640 kbps - Русский одноголосый закадровый (В. Королёв)
* АAС 2.0 179 kbps - Русский одноголосый закадровый (А. Гаврилов)
* АС3 2.0 192 kbps - Русский одноголосый закадровый (А. Гаврилов)
* АAС 2.0 192 kbps - Английский
* АС3 5.1 640 kbps - Английский

Субтитры:
* 3GPP Text - Русский
* 3GPP Text - Английский
Код:

Общее
Полное имя : /Volumes/Download/transmission/incomplete/Sahara.2005 (HD).m4v
Формат : MPEG-4
Идентификатор кодека : M4V
Размер файла : 7,28 Гбайт
Продолжительность : 2 ч. 4 м.
Режим общего битрейта : Переменный
Общий поток : 8402 Кбит/сек
Название фильма : Сахара
Исполнитель : Брек Айснер
Жанр : Action & Adventure
Дата записи : UTC 2005-08-30 07:00:00
Дата кодирования : UTC 2013-06-28 14:44:27
Дата пометки : UTC 2013-06-29 18:07:35
Правообладатель : Paramount Pictures, Bristol Bay Productions, Baldwin Entertainment Group
Обложка : Yes
Примечание : «Большое приключение. Большие деньги. Большие неприятности.»
sonm : Sahara
desc : Неистребимая жажда приключений толкает Дирка Пита в одну из самых опасных областей Западной Африки. Поиск несметных сокровищ Нила сопровождается страшной тайной — засекреченный «корабль смерти» повинен в гибели людей.
ldes : Неистребимая жажда приключений толкает Дирка Пита в одну из самых опасных областей Западной Африки. Поиск несметных сокровищ Нила сопровождается страшной тайной — засекреченный «корабль смерти» повинен в гибели людей. Питу, вместе с другом, необходимо держать ухо востро, собрав воедино смекалку, мужество и героизм, чтобы помочь доктору Еве Рохас победить таинственную болезнь, уносящую человеческие жизни в результате действия и желания себе же подобных. /  / Master explorer Dirk Pitt (Matthew McConaughey) takes on the adventure of his life when he embarks on a treasure hunt through some of the most dangerous regions of North Africa.  Searching for whal locals call "The Ship of Death", a long lost Civil War battleship filled with coins, Pitt and his wisecracking sidekick (Steve Zahn) use their wits and clever heroics to help Doctor Eva Rojas (Penelope Cruz) who believes the ship may be linked to mysterious deaths in the very same area.
hdvd : 1
stik : 9
cnID : 268167110
xid : Apple:vendor_id:2005-23048
iTunEXTC : mpaa|PG-13|300|
iTunMOVI : <?xml version="1.0" encoding="UTF-8"?> / <!DOCTYPE plist PUBLIC "-//Apple//DTD PLIST 1.0//EN" "http://www.apple.com/DTDs/PropertyList-1.0.dtd"> / <plist version="1.0"> /  <dict> /   <key>cast</key> /   <array> /    <dict> /     <key>name</key> /     <string>Мэттью МакКонахи</string> /    </dict> /    <dict> /     <key>name</key> /     <string>Пенелопа Крус</string> /    </dict> /    <dict> /     <key>name</key> /     <string>Стив Зан</string> /    </dict> /    <dict> /     <key>name</key> /     <string>Уильям Х. Мэйси</string> /    </dict> /    <dict> /     <key>name</key> /     <string>Делрой Линдо</string> /    </dict> /    <dict> /     <key>name</key> /     <string>Ленни Джеймс</string> /    </dict> /    <dict> /     <key>name</key> /     <string>Патрик Мэлахайд</string> /    </dict> /    <dict> /     <key>name</key> /     <string>Рэйн Уилсон</string> /    </dict> /    <dict> /     <key>name</key> /     <string>Ламбер Вильсон</string> /    </dict> /    <dict> /     <key>name</key> /     <string>Роберт Кавана</string> /    </dict> /   </array> /   <key>directors</key> /   <array> /    <dict> /     <key>name</key> /     <string>Breck Eisner</string> /    </dict> /   </array> /   <key>producers</key> /   <array> /    <dict> /     <key>name</key> /     <string>Стефани Остин</string> /    </dict> /    <dict> /     <key>name</key> /     <string>Ховард Болдуин</string> /    </dict> /    <dict> /     <key>name</key> /     <string>Карен Элиз Болдуин</string> /    </dict> /   </array> /   <key>screenwriters</key> /   <array> /    <dict> /     <key>name</key> /     <string>Томас Дин Доннелли</string> /    </dict> /    <dict> /     <key>name</key> /     <string>Джошуа Оппенхаймер</string> /    </dict> /    <dict> /     <key>name</key> /     <string>Джон С. Ричардс</string> /    </dict> /   </array> /  </dict> / </plist>
Видео #1
Идентификатор : 1
Формат : AVC
Формат/Информация : Advanced Video Codec
Профиль формата : High@L4.1
Параметр CABAC формата : Да
Параметр ReFrames формата : 12 кадров
Идентификатор кодека : avc1
Идентификатор кодека/Информация : Advanced Video Coding
Продолжительность : 2 ч. 4 м.
Битрейт : 5501 Кбит/сек
Максимальный битрейт : 16,0 Мбит/сек
Ширина : 1280 пикселей
Высота : 532 пикселя
Соотношение сторон : 2,40:1
Режим частоты кадров : Постоянный
Частота кадров : 23,976 кадра/сек
Цветовое пространство : YUV
Субдискретизация насыщенности : 4:2:0
Битовая глубина : 8 бит
Тип развёртки : Прогрессивная
Бит/(Пиксели*Кадры) : 0.337
Размер потока : 4,77 Гбайт (65%)
Библиотека кодирования : x264 core 133 r2334kMod a3ac64b
Настройки программы : cabac=1 / ref=12 / deblock=1:-2:-2 / analyse=0x3:0x113 / me=umh / subme=11 / psy=1 / fade_compensate=0.00 / psy_rd=1.00:0.00 / mixed_ref=1 / me_range=48 / chroma_me=1 / trellis=2 / 8x8dct=1 / cqm=0 / deadzone=21,11 / fast_pskip=1 / chroma_qp_offset=-2 / threads=12 / lookahead_threads=2 / sliced_threads=0 / nr=0 / decimate=1 / interlaced=0 / bluray_compat=0 / constrained_intra=0 / bframes=8 / b_pyramid=2 / b_adapt=2 / b_bias=0 / direct=3 / weightb=1 / open_gop=0 / weightp=2 / keyint=250 / keyint_min=23 / scenecut=40 / intra_refresh=0 / rc_lookahead=40 / rc=crf / mbtree=0 / crf=17.0000 / qcomp=0.60 / qpmin=0 / qpmax=69 / qpstep=4 / vbv_maxrate=62500 / vbv_bufsize=78125 / crf_max=0.0 / nal_hrd=none / ip_ratio=1.40 / pb_ratio=1.30 / aq=1:0.80
Язык : English
Дата кодирования : UTC 2013-06-28 14:44:27
Дата пометки : UTC 2013-06-28 14:46:38
Основные цвета : BT.709
Характеристики трансфера : BT.709
Коэффициенты матрицы : BT.709
Видео #2
Идентификатор : 14
Формат : JPEG
Идентификатор кодека : jpeg
Продолжительность : 2 ч. 4 м.
Вид битрейта : Переменный
Битрейт : 735 бит/сек
Ширина : 640 пикселей
Высота : 266 пикселей
Соотношение сторон : 2,40:1
Режим частоты кадров : Переменный
Частота кадров : 0,002 кадр/сек
Минимальная частота кадров : 0,001 кадр/сек
Максимальная частота кадров : 0,004 кадр/сек
Цветовое пространство : YUV
Субдискретизация насыщенности : 4:2:0
Битовая глубина : 8 бит
Метод сжатия : С потерями
Бит/(Пиксели*Кадры) : 2.159
Размер потока : 718 Кбайт (0%)
Язык : English
Дата кодирования : UTC 2013-06-29 18:07:35
Дата пометки : UTC 2013-06-29 18:07:35
Аудио #1
Идентификатор : 2
Формат : AAC
Формат/Информация : Advanced Audio Codec
Профиль формата : LC
Идентификатор кодека : 40
Продолжительность : 2 ч. 3 м.
Вид битрейта : Переменный
Битрейт : 192 Кбит/сек
Максимальный битрейт : 235 Кбит/сек
Каналы : 2 канала
Расположение каналов : Front: L R
Частота : 48,0 КГц
Метод сжатия : С потерями
Размер потока : 173 Мбайт (2%)
Заголовок : AAC Russian DUB
Язык : Russian
Дата кодирования : UTC 2013-06-28 14:18:31
Дата пометки : UTC 2013-06-28 14:46:38
Аудио #2
Идентификатор : 3
Формат : AC-3
Формат/Информация : Audio Coding 3
Расширение режима : CM (complete main)
Параметр Endianness формата : Big
Идентификатор кодека : ac-3
Продолжительность : 2 ч. 3 м.
Вид битрейта : Постоянный
Битрейт : 640 Кбит/сек
Каналы : 6 каналов
Расположение каналов : Front: L C R, Side: L R, LFE
Частота : 48,0 КГц
Битовая глубина : 16 бит
Метод сжатия : С потерями
Размер потока : 567 Мбайт (8%)
Заголовок : AC3 Russian DUB
Язык : Russian
Дата кодирования : UTC 2013-06-28 14:45:32
Дата пометки : UTC 2013-06-28 14:46:38
Аудио #3
Идентификатор : 4
Формат : AAC
Формат/Информация : Advanced Audio Codec
Профиль формата : LC
Идентификатор кодека : 40
Продолжительность : 2 ч. 4 м.
Вид битрейта : Переменный
Битрейт : 199 Кбит/сек
Максимальный битрейт : 234 Кбит/сек
Каналы : 2 канала
Расположение каналов : Front: L R
Частота : 48,0 КГц
Метод сжатия : С потерями
Размер потока : 176 Мбайт (2%)
Заголовок : AAC Russian VO ( Korolev)
Язык : Russian
Дата кодирования : UTC 2013-06-28 14:31:05
Дата пометки : UTC 2013-06-28 14:46:38
Аудио #4
Идентификатор : 5
Формат : AC-3
Формат/Информация : Audio Coding 3
Расширение режима : CM (complete main)
Параметр Endianness формата : Big
Идентификатор кодека : ac-3
Продолжительность : 2 ч. 4 м.
Вид битрейта : Постоянный
Битрейт : 640 Кбит/сек
Каналы : 6 каналов
Расположение каналов : Front: L C R, Side: L R, LFE
Частота : 48,0 КГц
Битовая глубина : 16 бит
Метод сжатия : С потерями
Размер потока : 568 Мбайт (8%)
Заголовок : AC3 Russian VO ( Korolev)
Язык : Russian
Дата кодирования : UTC 2013-06-28 14:45:52
Дата пометки : UTC 2013-06-28 14:46:38
Аудио #5
Идентификатор : 6
Формат : AAC
Формат/Информация : Advanced Audio Codec
Профиль формата : LC
Идентификатор кодека : 40
Продолжительность : 2 ч. 4 м.
Вид битрейта : Переменный
Битрейт : 171 Кбит/сек
Максимальный битрейт : 214 Кбит/сек
Каналы : 2 канала
Расположение каналов : Front: L R
Частота : 48,0 КГц
Метод сжатия : С потерями
Размер потока : 152 Мбайт (2%)
Заголовок : AAC Russian VO (Gavrilov)
Язык : Russian
Дата кодирования : UTC 2013-06-28 14:34:29
Дата пометки : UTC 2013-06-28 14:46:38
Аудио #6
Идентификатор : 7
Формат : AC-3
Формат/Информация : Audio Coding 3
Расширение режима : CM (complete main)
Параметр Endianness формата : Big
Идентификатор кодека : ac-3
Продолжительность : 2 ч. 4 м.
Вид битрейта : Постоянный
Битрейт : 192 Кбит/сек
Каналы : 2 канала
Расположение каналов : Front: L R
Частота : 48,0 КГц
Битовая глубина : 16 бит
Метод сжатия : С потерями
Размер потока : 170 Мбайт (2%)
Заголовок : AC3 Russian VO (Gavrilov)
Язык : Russian
Дата кодирования : UTC 2013-06-28 14:46:12
Дата пометки : UTC 2013-06-28 14:46:38
Аудио #7
Идентификатор : 8
Формат : AAC
Формат/Информация : Advanced Audio Codec
Профиль формата : LC
Идентификатор кодека : 40
Продолжительность : 2 ч. 4 м.
Вид битрейта : Переменный
Битрейт : 200 Кбит/сек
Максимальный битрейт : 241 Кбит/сек
Каналы : 2 канала
Расположение каналов : Front: L R
Частота : 48,0 КГц
Метод сжатия : С потерями
Размер потока : 178 Мбайт (2%)
Заголовок : AAC English
Язык : English
Дата кодирования : UTC 2013-06-28 14:42:05
Дата пометки : UTC 2013-06-28 14:46:38
Аудио #8
Идентификатор : 9
Формат : AC-3
Формат/Информация : Audio Coding 3
Расширение режима : CM (complete main)
Параметр Endianness формата : Big
Идентификатор кодека : ac-3
Продолжительность : 2 ч. 4 м.
Вид битрейта : Постоянный
Битрейт : 640 Кбит/сек
Каналы : 6 каналов
Расположение каналов : Front: L C R, Side: L R, LFE
Частота : 48,0 КГц
Битовая глубина : 16 бит
Метод сжатия : С потерями
Размер потока : 568 Мбайт (8%)
Заголовок : AC3 English
Язык : English
Дата кодирования : UTC 2013-06-28 14:46:20
Дата пометки : UTC 2013-06-28 14:46:38
Текст #1
Идентификатор : 10
Формат : Timed Text
Режим смешивания : sbtl
Идентификатор кодека : tx3g
Продолжительность : 1 ч. 57 м.
Вид битрейта : Переменный
Битрейт : 86 бит/сек
Размер потока : 73,9 Кбайт (0%)
Заголовок : Subtitle Russian (R5)
Язык : Russian
Дата кодирования : UTC 2013-06-28 14:46:38
Дата пометки : UTC 2013-06-28 14:46:38
Текст #2
Идентификатор : 11
Формат : Timed Text
Режим смешивания : sbtl
Идентификатор кодека : tx3g
Продолжительность : 1 ч. 57 м.
Вид битрейта : Переменный
Битрейт : 87 бит/сек
Размер потока : 74,4 Кбайт (0%)
Заголовок : Subtitle Russian (tamerlan)
Язык : Russian
Дата кодирования : UTC 2013-06-28 14:46:38
Дата пометки : UTC 2013-06-28 14:46:38
Текст #3
Идентификатор : 12
Формат : Timed Text
Режим смешивания : sbtl
Идентификатор кодека : tx3g
Продолжительность : 1 ч. 57 м.
Вид битрейта : Переменный
Битрейт : 53 бит/сек
Размер потока : 45,5 Кбайт (0%)
Заголовок : Subtitle English
Язык : English
Дата кодирования : UTC 2013-06-28 14:46:38
Дата пометки : UTC 2013-06-28 14:46:38
Меню #1
00:00:00.000 : Chapter 1
00:06:40.602 : Chapter 2
00:11:57.920 : Chapter 3
00:21:48.969 : Chapter 4
00:27:55.335 : Chapter 5
00:38:05.361 : Chapter 6
00:50:12.463 : Chapter 7
00:59:41.238 : Chapter 8
01:05:46.854 : Chapter 9
01:11:36.704 : Chapter 10
01:17:00.402 : Chapter 11
01:23:54.064 : Chapter 12
01:32:45.304 : Chapter 13
01:41:49.098 : Chapter 14
01:45:48.086 : Chapter 15
01:54:19.973 : Chapter 16
Меню #2
Идентификатор : 13
Идентификатор кодека : text
Продолжительность : 2 ч. 4 м.
Язык : English
Дата кодирования : UTC 2013-06-29 18:07:25
Дата пометки : UTC 2013-06-29 18:07:25
Вид битрейта : VBR
00:00:00.000 : Chapter 1
00:06:40.602 : Chapter 2
00:11:57.920 : Chapter 3
00:21:48.969 : Chapter 4
00:27:55.335 : Chapter 5
00:38:05.361 : Chapter 6
00:50:12.463 : Chapter 7
00:59:41.238 : Chapter 8
01:05:46.854 : Chapter 9
01:11:36.704 : Chapter 10
01:17:00.402 : Chapter 11
01:23:54.064 : Chapter 12
01:32:45.304 : Chapter 13
01:41:49.098 : Chapter 14
01:45:48.086 : Chapter 15
01:54:19.973 : Chapter 16

Sort Name: Sahara
XID: Apple:vendor_id:2005-23048
contentID: 268167110
Copyright: Paramount Pictures, Bristol Bay Productions, Baldwin Entertainment Group
Screenwriters: Томас Дин Доннелли, Джошуа Оппенхаймер, Джон С. Ричардс
Producers: Стефани Остин, Ховард Болдуин, Карен Элиз Болдуин
Director: Breck Eisner
Cast: Мэттью МакКонахи, Пенелопа Крус, Стив Зан, Уильям Х. Мэйси, Делрой Линдо, Ленни Джеймс, Патрик Мэлахайд, Рэйн Уилсон, Ламбер Вильсон, Роберт Кавана
Rating: 4
Long Description: Неистребимая жажда приключений толкает Дирка Пита в одну из самых опасных областей Западной Африки. Поиск несметных сокровищ Нила сопровождается страшной тайной — засекреченный «корабль смерти» повинен в гибели людей. Питу, вместе с другом, необходимо держать ухо востро, собрав воедино смекалку, мужество и героизм, чтобы помочь доктору Еве Рохас победить таинственную болезнь, уносящую человеческие жизни в результате действия и желания себе же подобных.

Master explorer Dirk Pitt (Matthew McConaughey) takes on the adventure of his life when he embarks on a treasure hunt through some of the most dangerous regions of North Africa. Searching for whal locals call "The Ship of Death", a long lost Civil War battleship filled with coins, Pitt and his wisecracking sidekick (Steve Zahn) use their wits and clever heroics to help Doctor Eva Rojas (Penelope Cruz) who believes the ship may be linked to mysterious deaths in the very same area.
Description: Неистребимая жажда приключений толкает Дирка Пита в одну из самых опасных областей Западной Африки. Поиск несметных сокровищ Нила сопровождается страшной тайной — засекреченный «корабль смерти» повинен в гибели людей.
Release Date: 2005-08-30T07:00:00Z
Genre: Action & Adventure
Comments: «Большое приключение. Большие деньги. Большие неприятности.»
Artist: Брек Айснер
Name: Сахара
Скриншоты:


За исходник спасибо: HDclub
[NNM-Club.ru]_sahara.torrent
 Торрент: Платиновая раздача  Зарегистрирован
 
Скачать


 Зарегистрирован:   30 Июн 2013 18:09:23
 Размер:   7.28 GB  (
 Рейтинг:   4.4 (Голосов: 18)
 Поблагодарили:   66
 Проверка:   Оформление проверено модератором 30 Июн 2013 18:28:25
Как cкачать  ·  Как раздать  ·  Правильно оформить  ·  Поднять ратио!  

_________________
My make-up may be flaking, but my smile still stays on.
Показать сообщения:   
Начать новую тему   Ответить на тему    Торрент-трекер NNM-Club -> Аудио и Видео -> Зарубежное видео HD для устройств Apple Часовой пояс: GMT + 3
Страница 1 из 1