Классический форум-трекер
canvas not supported
Нас вместе: 4 233 671

Лабиринт Фавна / El laberinto del fauno (2006) HDRip


 
 
RSS
Начать новую тему   Ответить на тему    Торрент-трекер NNM-Club -> Зарубежное кино -> Зарубежные Фильмы (SD)
Автор Сообщение
Marioxo ®
Стаж: 11 лет 6 мес.
Сообщений: 61
Ratio: 8.309
Раздал: 3.58 TB
Поблагодарили: 10500
100%
russia.gif
Лабиринт Фавна / El laberinto del fauno (2006) HDRip
Год выпуска: 2006
Производство: Испания, Мексика, США
Жанр: Фэнтези, Драма, Военный

Описание фильма:
Испания, 1944 год. Группа повстанцев сражается с фашистами в горных лесах северной Наварры. Офелия — 10-летняя одинокая и мечтательная девочка — переезжает со своей беременной матерью Кармен в военный лагерь отчима капитана Видаля. Видаль — высокомерный и жестокий офицер армии Франко, который должен очистить район от повстанцев любой ценой. Офелия, увлеченная волшебными сказками, обнаруживает старинный заброшенный лабиринт неподалеку от дома.
Фея проводит ее в центр лабиринта, где она встречает Фавна, хозяина подземелья. Фавн утверждает, что знает её истинную судьбу и её тайное предназначение. Оказывается Офелия — пропавшая принцесса волшебного королевства, которую многие века разыскивает ее отец. Фавн предлагает ей возможность вернуться в волшебное королевство. Но для начала она должна пройти три испытания до наступления полнолуния. Никто не должен узнать об этом.
Время на исходе — как для Офелии, так и для отряда повстанцев. Всем придется противостоять трудностям и жестокости на пути к свободе.

Режиссер: Гильермо Дель Торо
Актеры: Ивана Бакеро, Серхи Лопес, Марибель Верду, Даг Джонс, Ариадна Хиль, Алех Ангуло, Маноло Соло, Сезар Веа, Рожер Казамажор

Продолжительность: 01:58:54
Качество видео: HDRip
Перевод: Дублированный
Язык субтитров: Отсутствуют



Дата мировой премьеры: 27 мая 2006
Дата российской премьеры: 30 ноября 2006, «RUSCICO»
Дата выхода DVD релиза: 22 сентября 2009, «Флагман-Трейд»

Видеокодек: Xvid
Битрейт видео: ~759 Kbps
Размер кадра: 688x368
Аудиокодек: MP3 2.0
Битрейт аудио: 112 Kbps
Общее
Полное имя : E:\Торренты на раздачу\Лабиринт Фавна\Labyrint_favna.avi
Формат : AVI
Формат/Информация : Audio Video Interleave
Размер файла : 748 Мбайт
Продолжительность : 1 ч. 58 м.
Общий поток : 880 Кбит/сек
Программа кодирования : VirtualDubMod 1.5.10.2 (build 2540/release)
Библиотека кодирования : VirtualDubMod build 2540/release

Видео
Идентификатор : 0
Формат : MPEG-4 Visual
Профиль формата : Advanced Simple@L5
Параметр BVOP формата : 1
Параметр QPel формата : Нет
Параметр GMC формата : Без точки перехода
Параметр матрицы формата : Default (MPEG)
Идентификатор кодека : XVID
Идентификатор кодека/Подсказка : XviD
Продолжительность : 1 ч. 58 м.
Битрейт : 759 Кбит/сек
Ширина : 688 пикселей
Высота : 368 пикселей
Соотношение сторон : 1,85:1
Частота кадров : 23,976 кадра/сек
Цветовое пространство : YUV
Субдискретизация насыщенности : 4:2:0
Битовая глубина : 8 бит
Тип развёртки : Прогрессивная
Метод сжатия : С потерями
Бит/(Пиксели*Кадры) : 0.125
Размер потока : 645 Мбайт (86%)
Библиотека кодирования : XviD 1.2.0.dev47 (UTC 2006-11-01)

Аудио
Идентификатор : 1
Формат : MPEG Audio
Версия формата : Version 1
Профиль формата : Layer 3
Идентификатор кодека : 55
Идентификатор кодека/Подсказка : MP3
Продолжительность : 1 ч. 58 м.
Вид битрейта : Постоянный
Битрейт : 112 Кбит/сек
Каналы : 2 канала
Частота : 48,0 КГц
Метод сжатия : С потерями
Размер потока : 95,3 Мбайт (13%)
Выравнивание : Соединение по промежуткам
Продолжительность промежутка : 42 мс. (1,00 видеокадр)
Время предзагрузки промежутка : 504 мс.
Библиотека кодирования : LAME3.97
Настройки программы : -m s -V 4 -q 2 -lowpass 15.6 -b 112
Скриншоты:


Все релизы "Лабиринт Фавна" на сайте

Время раздачи: ~ С 14:00 до 03:00 (10-15 скачавших)
[NNM-Club.ru]_Labyrint_favna.torrent
 Торрент: Платиновая раздача  Зарегистрирован
 
Скачать


Примагнититься
 Зарегистрирован:   04 Июл 2013 19:52:48
 Размер:   748 MB  (
 Рейтинг:   4.7 (Голосов: 75)
 Поблагодарили:   238
 Проверка:   Оформление проверено модератором 05 Июл 2013 09:23:57
Как cкачать  ·  Как раздать  ·  Правильно оформить  ·  Поднять ратио!  
sanek5
Стаж: 11 лет 11 мес.
Сообщений: 3
Ratio: 2.054
22.6%
russia.gif
Фильм невероятный и запоминающийся! советую!
detroie
 
Стаж: 14 лет 6 мес.
Сообщений: 357
Ratio: 7.077
Раздал: 4.479 TB
100%
kazakhstan.gif
Очень сильный фильм.
Olenevod-7
Стаж: 13 лет 1 мес.
Сообщений: 122
Ratio: 0.96
100%
Откуда: Коряжма
russia.gif
Согласен :клево:

_________________
Геймерам салют!
niaks
Стаж: 13 лет 10 мес.
Сообщений: 54
Ratio: 29.155
100%
russia.gif
Давно хотел посмотреть. Спасибо!
Олег Олегыч
Стаж: 13 лет 5 мес.
Сообщений: 83
Ratio: 16.405
100%
Откуда: Пенза
russia.gif
Как по мне так потрясающий фильм!
Гильермо дель Торо на высоте!
kolman
Стаж: 13 лет 8 мес.
Сообщений: 299
Ratio: 1.541
100%
Откуда: Бельцы
moldova.gif
Спасибо, фильм достойный похвалы :клево: :клево: :клево:
Показать сообщения:   
Начать новую тему   Ответить на тему    Торрент-трекер NNM-Club -> Зарубежное кино -> Зарубежные Фильмы (SD) Часовой пояс: GMT + 3
Страница 1 из 1