Классический форум-трекер
canvas not supported
Нас вместе: 4 193 514

Хелльфьорд / Hellfjord (2012) HDRip (Сезон 1, серии 1-7 из 7) ViruseProject


Страницы:  1, 2  След. 
 
RSS
Начать новую тему   Ответить на тему    Торрент-трекер NNM-Club -> Зарубежные сериалы
Автор Сообщение
Игорь_Вла​димирович​ ®
Стаж: 10 лет 3 мес.
Сообщений: 2522
Ratio: 1103.085
Раздал: 32.13 TB
Поблагодарили: 140310
100%
Хелльфьорд / Hellfjord (Сезон 1 полный (7 серий)) (2012) HDRip (ViruseProject)
Год выпуска: 2012
Страна: Норвегия
Жанр: черная комедия
Продолжительность: ~ 00:30:00 серия

Перевод: Любительский (многоголосый закадровый) ViruseProject
Русские субтитры: нет
Режиссер: Роар Утхауг, Патрик Сиверсен
Актеры: Заид Али, Стиг Фроде Хенриксен, Ингрид Болсай Бердал, Томас Ханзон, Пихла Виитала, Мария Бок и др.

Описание:
Новый норвежский сериал о полицейском пакистанского происхождения, которого увольняют из полиции, после случайного убийства на празднике города своей полицейской лошади на глазах у тысяч детей. Но из-за лазейки в законодательстве, его решают отправить отбывать свой 3-месячный срок в Хелльфьорд - крохотный рыбацкий городок на севере Норвегии, который населен простодушными людьми, средний возраст которых 67 лет. Но однажды... он обнаруживает тайну, которая может перевернуть Хелльфьорд с ног на голову, а может быть даже... наизнанку.

Чёрный юмор, неожиданные повороты сюжета, красивая местность, хорошая музыка, сцены жестокости, немного нецензурной лексики. Семь серий, семь норвежских режиссёров.



Качество видео: HDRip
Формат: AVI
Видео: 720x400 (1.80:1), 25 fps, XviD build 50 ~1686 kbps avg, 0.23 bit/pixel
Audio Rus: 48 kHz, MPEG Layer 3, 2 ch, ~192.00 kbps avg
ВНИМАНИЕ! НЕНОРМАТИВНАЯ ЛЕКСИКА!!!


Релиз:
Озвучка: Лидия Левченко, Алексей Кизуб, Дмитрий Иванов, Дмитрий Кравченко
Автор перевода: Sonson
Монтаж, сведение звука, подготовка видео: viruse (Виталий Емельянов)
Сериал «Хелльфьорд / Hellfjord » на трекере NNM-Club

Скриншоты:

Полное имя : F:\Сериал\раздача\Hellfjord.S01\Hellfjord.S01E01.ViruseProject.avi
Формат : AVI
Формат/Информация : Audio Video Interleave
Размер файла : 403 Мбайт
Продолжительность : 29 м.
Общий поток : 1889 Кбит/сек
Программа кодирования : VirtualDubMod 1.5.10.2 (build 2540/release)
Библиотека кодирования : VirtualDubMod build 2540/release

Видео
Идентификатор : 0
Формат : MPEG-4 Visual
Профиль формата : Advanced Simple@L5
Параметр BVOP формата : 1
Параметр QPel формата : Нет
Параметр GMC формата : Без точки перехода
Параметр матрицы формата : Default (MPEG)
Идентификатор кодека : XVID
Идентификатор кодека/Подсказка : XviD
Продолжительность : 29 м.
Битрейт : 1687 Кбит/сек
Ширина : 720 пикс.
Высота : 400 пикс.
Соотношение сторон : 16:9
Частота кадров : 25,000 кадр/сек
Цветовое пространство : YUV
Подвыборка цветности : 4:2:0
Битовая глубина : 8 бит
Тип развёртки : Прогрессивная
Метод сжатия : С потерями
Бит/(Пиксели*Кадры) : 0.234
Размер потока : 360 Мбайт (89%)
Библиотека кодирования : XviD 1.2.1 (UTC 2008-12-04)

Аудио
Идентификатор : 1
Формат : MPEG Audio
Версия формата : Version 1
Профиль формата : Layer 3
Идентификатор кодека : 55
Идентификатор кодека/Подсказка : MP3
Продолжительность : 29 м.
Вид битрейта : Постоянный
Битрейт : 192 Кбит/сек
Каналы : 2 канала
Частота : 48,0 КГц
Метод сжатия : С потерями
Размер потока : 41,0 Мбайт (10%)
Выравнивание : Разделение по промежуткам
Продолжительность промежутка : 40 мс. (1,00 видеокадр)
Время предзагрузки промежутка : 500 ms
Внимание! Раздача ведётся путём добавления новых серий; при каждом добавлении создаётся новый торрент.
Чтобы начать докачку новой серии, пользователям необходимо сделать следующее:
1. Остановить скачивание;
2. Удалить старый торрент у себя из клиента (старые серии удалять не надо);
3. Скачать новый торрент и запустить его у себя в клиенте вместо старого, при этом указать клиенту путь в старую папку куда и должно происходить скачивание новых серий. Ваш клиент при этом должен произвести хеширование (проверку) старой папки и будет докачивать только те серии, которых у вас ещё нет. Старые серии при этом не удаляются, а продолжают раздаваться! Eсли вы уже удалили старые серии, то предотвратить повторную закачку старых серий можно, отжав галочку в соответствующих местах при запуске нового торрента.
Время раздачи: с 9.00 до 23.00, до первых пяти скачавших
[NNMClub.to]_Hell'f'ord Hellfjord Sezon 1 Serii 1-7 iz 7 (Roar Uthaug, Patrik Siversen) [2012].torrent
 Торрент: Платиновая раздача  Зарегистрирован
 
Скачать


Примагнититься
 Зарегистрирован:   14 Май 2022 01:45:51
 Размер:   2.74 GB  (
 Рейтинг:   4.7 (Голосов: 84)
 Поблагодарили:   404
 Проверка:   Оформление проверено модератором 14 Май 2022 01:58:00
Как cкачать  ·  Как раздать  ·  Правильно оформить  ·  Поднять ратио!  

_________________

Мои релизы
Zgorynych
Стаж: 11 лет 1 мес.
Сообщений: 31
Ratio: 43.613
100%
russia.gif
Прикололся спасибо! А когда будут следующие серии?
Игорь_Вла​димирович​ ®
Стаж: 10 лет 3 мес.
Сообщений: 2522
Ratio: 1103.085
Раздал: 32.13 TB
Поблагодарили: 140310
100%
Zgorynych писал(а): Перейти к сообщению
Прикололся спасибо! А когда будут следующие серии?

минимум одна серия в неделю

_________________

Мои релизы
polyphormix
 
Стаж: 13 лет
Сообщений: 281
Ratio: 2.037
39.77%
убил лошадь, О_О, гляну

Добавлено спустя 1 час 14 минут 25 секунд:

жуткая чепуха :(
demon-yo
Стаж: 12 лет
Сообщений: 42
Ratio: 40.758
Поблагодарили: 14
100%
albania.gif
Зачетный сериальчик, буду ждать новых серий, давно такого не было.
Dilll
Стаж: 14 лет
Сообщений: 448
Ratio: 7.059
Поблагодарили: 95
12.75%
Откуда: Симферополь
russia.gif
Заинтриговали!Отпишусь после просмотра

_________________
When all are one and one is all
To be a rock and not to roll.
Brosha
Стаж: 14 лет 5 мес.
Сообщений: 318
Ratio: 42.083
Поблагодарили: 1107
100%
pirates.png
айс
Dilll
Стаж: 14 лет
Сообщений: 448
Ratio: 7.059
Поблагодарили: 95
12.75%
Откуда: Симферополь
russia.gif
Сериал выгодно отличается от всего современного многообразия))
Эдакий Твин-Пикс набекрень, со своей атмосферой, "блэкджеком и шлюхами" (с):лол:
Автору спасибо за раздачу, будем ждать продолжения

_________________
When all are one and one is all
To be a rock and not to roll.
ivan_s1
Стаж: 12 лет 2 мес.
Сообщений: 55
Ratio: 3.899
1.93%
Неплохо! Комедия супер.
sascha001
Стаж: 9 лет 4 мес.
Сообщений: 8
Ratio: 2.086
6.47%
Когда 3-я серия ?
Sarkafag
Стаж: 9 лет 8 мес.
Сообщений: 79
Ratio: 19.346
100%
germany.gif
Мне понравился сериал, спасибо!!!
mdimas89
Стаж: 14 лет 4 мес.
Сообщений: 8
Ratio: 1.39
1.73%
russia.gif
концовка 2 серии неожиданная)
forrest666
Стаж: 12 лет
Сообщений: 131
Ratio: 17.063
100%
отличный фильм!!!)))
Игорь_Вла​димирович​ ®
Стаж: 10 лет 3 мес.
Сообщений: 2522
Ratio: 1103.085
Раздал: 32.13 TB
Поблагодарили: 140310
100%
Добавлены 6-7 серии.
Финал сезона.
Обновите торрент.

_________________

Мои релизы
Nemec555
Стаж: 9 лет 10 мес.
Сообщений: 811
Ratio: 106.833
Раздал: 59.12 TB
Поблагодарили: 2899
100%
Откуда: Берлин
germany.gif
Смог осилить только до 4й серии и то со 2го раза... Полная чушь, ни чего смешного не увидел!
Показать сообщения:   
Начать новую тему   Ответить на тему    Торрент-трекер NNM-Club -> Зарубежные сериалы Часовой пояс: GMT + 3
Страницы:  1, 2  След.
Страница 1 из 2