Классический форум-трекер
canvas not supported
Нас вместе: 4 172 680

Julian Lennon - Everything Changes (2011) [ALAC|Lossless]<Rock>


 
 
RSS
Начать новую тему   Ответить на тему    Торрент-трекер NNM-Club -> Аудио и Видео -> Музыка Lossless (ALAC)
Автор Сообщение
CafeTea ®
Покровитель талантов
Стаж: 10 лет 5 мес.
Сообщений: 513
Ratio: 6.698
Поблагодарили: 20421
100%
Julian Lennon - Everything Changes (2011)
Год: 2011
Лейбл: Nova Sales & Distribution
Страна:
Жанр: Rock

Кодек: ALAC
Битрейт: Lossless

Продолжительность: 00:57:20

Треклист:
01. Everything Changes
02. Lookin' 4 Luv
03. Hold On
04. Touch the Sky
05. Invisible
06. Just for You
07. Always
08. Disconnected
09. Never Let You Go
10. Guess It Was Me
11. Don't Wake Me Up
12. Beautiful
Код:
Общее
Полное имя                               : \\psf\Home\Desktop\2011 - Everything Changes\01. Everything Changes.m4a
Формат                                   : MPEG-4
Профиль формата                          : Apple audio with iTunes info
Идентификатор кодека                     : M4A
Размер файла                             : 26,7 Мбайт
Продолжительность                        : 4 м. 8 с.
Режим общего битрейта                    : Переменный
Общий поток                              : 902 Кбит/сек
Альбом                                   : Everything Changes
Трек                                     : Everything Changes
Трек/Положение                           : 1
Исполнитель                              : Julian Lennon
Жанр                                     : Pop
Дата записи                              : 2011
Дата кодирования                         : UTC 2013-07-12 17:25:47
Дата пометки                             : UTC 2013-07-12 17:25:51
Программа кодирования                    : Easy CD-DA Extractor (http://www.poikosoft.com)
Обложка                                  : Yes

Аудио
Идентификатор                            : 1
Формат                                   : ALAC
Идентификатор кодека                     : alac
Идентификатор кодека/Информация          : Apple Lossless Audio Codec
Продолжительность                        : 4 м. 8 с.
Duration_LastFrame                       : -67 мс.
Вид битрейта                             : Переменный
Битрейт                                  : 900 Кбит/сек
Каналы                                   : 2 канала
Частота                                  : 44,1 КГц
Битовая глубина                          : 16 бит
Размер потока                            : 26,6 Мбайт (100%)
Язык                                     : English
Дата кодирования                         : UTC 2013-07-12 17:25:47
Дата пометки                             : UTC 2013-07-12 17:25:51

Общее
Полное имя                               : \\psf\Home\Desktop\2011 - Everything Changes\02. Lookin' 4 Luv.m4a
Формат                                   : MPEG-4
Профиль формата                          : Apple audio with iTunes info
Идентификатор кодека                     : M4A
Размер файла                             : 28,7 Мбайт
Продолжительность                        : 4 м. 12 с.
Режим общего битрейта                    : Переменный
Общий поток                              : 951 Кбит/сек
Альбом                                   : Everything Changes
Трек                                     : Lookin' 4 Luv
Трек/Положение                           : 2
Исполнитель                              : Julian Lennon
Жанр                                     : Pop
Дата записи                              : 2011
Дата кодирования                         : UTC 2013-07-12 17:25:47
Дата пометки                             : UTC 2013-07-12 17:25:57
Программа кодирования                    : Easy CD-DA Extractor (http://www.poikosoft.com)
Обложка                                  : Yes

Аудио
Идентификатор                            : 1
Формат                                   : ALAC
Идентификатор кодека                     : alac
Идентификатор кодека/Информация          : Apple Lossless Audio Codec
Продолжительность                        : 4 м. 12 с.
Duration_LastFrame                       : -6 мс.
Вид битрейта                             : Переменный
Битрейт                                  : 949 Кбит/сек
Каналы                                   : 2 канала
Частота                                  : 44,1 КГц
Битовая глубина                          : 16 бит
Размер потока                            : 28,6 Мбайт (100%)
Язык                                     : English
Дата кодирования                         : UTC 2013-07-12 17:25:47
Дата пометки                             : UTC 2013-07-12 17:25:54

Общее
Полное имя                               : \\psf\Home\Desktop\2011 - Everything Changes\03. Hold On.m4a
Формат                                   : MPEG-4
Профиль формата                          : Apple audio with iTunes info
Идентификатор кодека                     : M4A
Размер файла                             : 26,8 Мбайт
Продолжительность                        : 4 м. 53 с.
Режим общего битрейта                    : Переменный
Общий поток                              : 765 Кбит/сек
Альбом                                   : Everything Changes
Трек                                     : Hold On
Трек/Положение                           : 3
Исполнитель                              : Julian Lennon
Жанр                                     : Pop
Дата записи                              : 2011
Дата кодирования                         : UTC 2013-07-12 17:25:55
Дата пометки                             : UTC 2013-07-12 17:26:00
Программа кодирования                    : Easy CD-DA Extractor (http://www.poikosoft.com)
Обложка                                  : Yes

Аудио
Идентификатор                            : 1
Формат                                   : ALAC
Идентификатор кодека                     : alac
Идентификатор кодека/Информация          : Apple Lossless Audio Codec
Продолжительность                        : 4 м. 53 с.
Duration_LastFrame                       : -18 мс.
Вид битрейта                             : Переменный
Битрейт                                  : 763 Кбит/сек
Каналы                                   : 2 канала
Частота                                  : 44,1 КГц
Битовая глубина                          : 16 бит
Размер потока                            : 26,7 Мбайт (100%)
Язык                                     : English
Дата кодирования                         : UTC 2013-07-12 17:25:55
Дата пометки                             : UTC 2013-07-12 17:26:00

Общее
Полное имя                               : \\psf\Home\Desktop\2011 - Everything Changes\04. Touch the Sky.m4a
Формат                                   : MPEG-4
Профиль формата                          : Apple audio with iTunes info
Идентификатор кодека                     : M4A
Размер файла                             : 30,3 Мбайт
Продолжительность                        : 4 м. 25 с.
Режим общего битрейта                    : Переменный
Общий поток                              : 958 Кбит/сек
Альбом                                   : Everything Changes
Трек                                     : Touch the Sky
Трек/Положение                           : 4
Исполнитель                              : Julian Lennon
Жанр                                     : Pop
Дата записи                              : 2011
Дата кодирования                         : UTC 2013-07-12 17:26:00
Дата пометки                             : UTC 2013-07-12 17:26:07
Программа кодирования                    : Easy CD-DA Extractor (http://www.poikosoft.com)
Обложка                                  : Yes

Аудио
Идентификатор                            : 1
Формат                                   : ALAC
Идентификатор кодека                     : alac
Идентификатор кодека/Информация          : Apple Lossless Audio Codec
Продолжительность                        : 4 м. 25 с.
Duration_LastFrame                       : -51 мс.
Вид битрейта                             : Переменный
Битрейт                                  : 956 Кбит/сек
Каналы                                   : 2 канала
Частота                                  : 44,1 КГц
Битовая глубина                          : 16 бит
Размер потока                            : 30,3 Мбайт (100%)
Язык                                     : English
Дата кодирования                         : UTC 2013-07-12 17:26:00
Дата пометки                             : UTC 2013-07-12 17:26:06

Общее
Полное имя                               : \\psf\Home\Desktop\2011 - Everything Changes\05. Invisible.m4a
Формат                                   : MPEG-4
Профиль формата                          : Apple audio with iTunes info
Идентификатор кодека                     : M4A
Размер файла                             : 29,7 Мбайт
Продолжительность                        : 4 м. 15 с.
Режим общего битрейта                    : Переменный
Общий поток                              : 975 Кбит/сек
Альбом                                   : Everything Changes
Трек                                     : Invisible
Трек/Положение                           : 5
Исполнитель                              : Julian Lennon
Жанр                                     : Pop
Дата записи                              : 2011
Дата кодирования                         : UTC 2013-07-12 17:26:24
Дата пометки                             : UTC 2013-07-12 17:26:29
Программа кодирования                    : Easy CD-DA Extractor (http://www.poikosoft.com)
Обложка                                  : Yes

Аудио
Идентификатор                            : 1
Формат                                   : ALAC
Идентификатор кодека                     : alac
Идентификатор кодека/Информация          : Apple Lossless Audio Codec
Продолжительность                        : 4 м. 15 с.
Duration_LastFrame                       : -47 мс.
Вид битрейта                             : Переменный
Битрейт                                  : 973 Кбит/сек
Каналы                                   : 2 канала
Частота                                  : 44,1 КГц
Битовая глубина                          : 16 бит
Размер потока                            : 29,6 Мбайт (100%)
Язык                                     : English
Дата кодирования                         : UTC 2013-07-12 17:26:24
Дата пометки                             : UTC 2013-07-12 17:26:29

Общее
Полное имя                               : \\psf\Home\Desktop\2011 - Everything Changes\06. Just for You.m4a
Формат                                   : MPEG-4
Профиль формата                          : Apple audio with iTunes info
Идентификатор кодека                     : M4A
Размер файла                             : 31,4 Мбайт
Продолжительность                        : 4 м. 20 с.
Режим общего битрейта                    : Переменный
Общий поток                              : 1011 Кбит/сек
Альбом                                   : Everything Changes
Трек                                     : Just for You
Трек/Положение                           : 6
Исполнитель                              : Julian Lennon
Жанр                                     : Pop
Дата записи                              : 2011
Дата кодирования                         : UTC 2013-07-12 17:26:27
Дата пометки                             : UTC 2013-07-12 17:26:33
Программа кодирования                    : Easy CD-DA Extractor (http://www.poikosoft.com)
Обложка                                  : Yes

Аудио
Идентификатор                            : 1
Формат                                   : ALAC
Идентификатор кодека                     : alac
Идентификатор кодека/Информация          : Apple Lossless Audio Codec
Продолжительность                        : 4 м. 20 с.
Duration_LastFrame                       : -63 мс.
Вид битрейта                             : Переменный
Битрейт                                  : 1009 Кбит/сек
Каналы                                   : 2 канала
Частота                                  : 44,1 КГц
Битовая глубина                          : 16 бит
Размер потока                            : 31,3 Мбайт (100%)
Язык                                     : English
Дата кодирования                         : UTC 2013-07-12 17:26:27
Дата пометки                             : UTC 2013-07-12 17:26:33

Общее
Полное имя                               : \\psf\Home\Desktop\2011 - Everything Changes\07. Always.m4a
Формат                                   : MPEG-4
Профиль формата                          : Apple audio with iTunes info
Идентификатор кодека                     : M4A
Размер файла                             : 40,6 Мбайт
Продолжительность                        : 6 м. 16 с.
Режим общего битрейта                    : Переменный
Общий поток                              : 903 Кбит/сек
Альбом                                   : Everything Changes
Трек                                     : Always
Трек/Положение                           : 7
Исполнитель                              : Julian Lennon
Жанр                                     : Pop
Дата записи                              : 2011
Дата кодирования                         : UTC 2013-07-12 17:26:31
Дата пометки                             : UTC 2013-07-12 17:26:38
Программа кодирования                    : Easy CD-DA Extractor (http://www.poikosoft.com)
Обложка                                  : Yes

Аудио
Идентификатор                            : 1
Формат                                   : ALAC
Идентификатор кодека                     : alac
Идентификатор кодека/Информация          : Apple Lossless Audio Codec
Продолжительность                        : 6 м. 16 с.
Duration_LastFrame                       : -66 мс.
Вид битрейта                             : Переменный
Битрейт                                  : 902 Кбит/сек
Каналы                                   : 2 канала
Частота                                  : 44,1 КГц
Битовая глубина                          : 16 бит
Размер потока                            : 40,5 Мбайт (100%)
Язык                                     : English
Дата кодирования                         : UTC 2013-07-12 17:26:31
Дата пометки                             : UTC 2013-07-12 17:26:38

Общее
Полное имя                               : \\psf\Home\Desktop\2011 - Everything Changes\08. Disconnected.m4a
Формат                                   : MPEG-4
Профиль формата                          : Apple audio with iTunes info
Идентификатор кодека                     : M4A
Размер файла                             : 45,9 Мбайт
Продолжительность                        : 6 м. 55 с.
Режим общего битрейта                    : Переменный
Общий поток                              : 925 Кбит/сек
Альбом                                   : Everything Changes
Трек                                     : Disconnected
Трек/Положение                           : 8
Исполнитель                              : Julian Lennon
Жанр                                     : Pop
Дата записи                              : 2011
Дата кодирования                         : UTC 2013-07-12 17:26:38
Дата пометки                             : UTC 2013-07-12 17:26:48
Программа кодирования                    : Easy CD-DA Extractor (http://www.poikosoft.com)
Обложка                                  : Yes

Аудио
Идентификатор                            : 1
Формат                                   : ALAC
Идентификатор кодека                     : alac
Идентификатор кодека/Информация          : Apple Lossless Audio Codec
Продолжительность                        : 6 м. 55 с.
Duration_LastFrame                       : -37 мс.
Вид битрейта                             : Переменный
Битрейт                                  : 924 Кбит/сек
Каналы                                   : 2 канала
Частота                                  : 44,1 КГц
Битовая глубина                          : 16 бит
Размер потока                            : 45,8 Мбайт (100%)
Язык                                     : English
Дата кодирования                         : UTC 2013-07-12 17:26:38
Дата пометки                             : UTC 2013-07-12 17:26:47

Общее
Полное имя                               : \\psf\Home\Desktop\2011 - Everything Changes\09. Never Let You Go.m4a
Формат                                   : MPEG-4
Профиль формата                          : Apple audio with iTunes info
Идентификатор кодека                     : M4A
Размер файла                             : 25,8 Мбайт
Продолжительность                        : 3 м. 57 с.
Режим общего битрейта                    : Переменный
Общий поток                              : 912 Кбит/сек
Альбом                                   : Everything Changes
Трек                                     : Never Let You Go
Трек/Положение                           : 9
Исполнитель                              : Julian Lennon
Жанр                                     : Pop
Дата записи                              : 2011
Дата кодирования                         : UTC 2013-07-12 17:26:41
Дата пометки                             : UTC 2013-07-12 17:26:49
Программа кодирования                    : Easy CD-DA Extractor (http://www.poikosoft.com)
Обложка                                  : Yes

Аудио
Идентификатор                            : 1
Формат                                   : ALAC
Идентификатор кодека                     : alac
Идентификатор кодека/Информация          : Apple Lossless Audio Codec
Продолжительность                        : 3 м. 57 с.
Duration_LastFrame                       : -15 мс.
Вид битрейта                             : Переменный
Битрейт                                  : 910 Кбит/сек
Каналы                                   : 2 канала
Частота                                  : 44,1 КГц
Битовая глубина                          : 16 бит
Размер потока                            : 25,7 Мбайт (100%)
Язык                                     : English
Дата кодирования                         : UTC 2013-07-12 17:26:41
Дата пометки                             : UTC 2013-07-12 17:26:49

Общее
Полное имя                               : \\psf\Home\Desktop\2011 - Everything Changes\10. Guess It Was Me.m4a
Формат                                   : MPEG-4
Профиль формата                          : Apple audio with iTunes info
Идентификатор кодека                     : M4A
Размер файла                             : 26,2 Мбайт
Продолжительность                        : 3 м. 48 с.
Режим общего битрейта                    : Переменный
Общий поток                              : 963 Кбит/сек
Альбом                                   : Everything Changes
Трек                                     : Guess It Was Me
Трек/Положение                           : 10
Исполнитель                              : Julian Lennon
Жанр                                     : Pop
Дата записи                              : 2011
Дата кодирования                         : UTC 2013-07-12 17:26:49
Дата пометки                             : UTC 2013-07-12 17:26:56
Программа кодирования                    : Easy CD-DA Extractor (http://www.poikosoft.com)
Обложка                                  : Yes

Аудио
Идентификатор                            : 1
Формат                                   : ALAC
Идентификатор кодека                     : alac
Идентификатор кодека/Информация          : Apple Lossless Audio Codec
Продолжительность                        : 3 м. 48 с.
Duration_LastFrame                       : -45 мс.
Вид битрейта                             : Переменный
Битрейт                                  : 961 Кбит/сек
Каналы                                   : 2 канала
Частота                                  : 44,1 КГц
Битовая глубина                          : 16 бит
Размер потока                            : 26,2 Мбайт (100%)
Язык                                     : English
Дата кодирования                         : UTC 2013-07-12 17:26:49
Дата пометки                             : UTC 2013-07-12 17:26:53

Общее
Полное имя                               : \\psf\Home\Desktop\2011 - Everything Changes\11. Don't Wake Me Up.m4a
Формат                                   : MPEG-4
Профиль формата                          : Apple audio with iTunes info
Идентификатор кодека                     : M4A
Размер файла                             : 31,2 Мбайт
Продолжительность                        : 5 м. 10 с.
Режим общего битрейта                    : Переменный
Общий поток                              : 842 Кбит/сек
Альбом                                   : Everything Changes
Трек                                     : Don't Wake Me Up
Трек/Положение                           : 11
Исполнитель                              : Julian Lennon
Жанр                                     : Pop
Дата записи                              : 2011
Дата кодирования                         : UTC 2013-07-12 17:26:59
Дата пометки                             : UTC 2013-07-12 17:27:04
Программа кодирования                    : Easy CD-DA Extractor (http://www.poikosoft.com)
Обложка                                  : Yes

Аудио
Идентификатор                            : 1
Формат                                   : ALAC
Идентификатор кодека                     : alac
Идентификатор кодека/Информация          : Apple Lossless Audio Codec
Продолжительность                        : 5 м. 10 с.
Duration_LastFrame                       : -15 мс.
Вид битрейта                             : Переменный
Битрейт                                  : 840 Кбит/сек
Каналы                                   : 2 канала
Частота                                  : 44,1 КГц
Битовая глубина                          : 16 бит
Размер потока                            : 31,1 Мбайт (100%)
Язык                                     : English
Дата кодирования                         : UTC 2013-07-12 17:26:59
Дата пометки                             : UTC 2013-07-12 17:27:03

Общее
Полное имя                               : \\psf\Home\Desktop\2011 - Everything Changes\12. Beautiful.m4a
Формат                                   : MPEG-4
Профиль формата                          : Apple audio with iTunes info
Идентификатор кодека                     : M4A
Размер файла                             : 24,6 Мбайт
Продолжительность                        : 4 м. 54 с.
Режим общего битрейта                    : Переменный
Общий поток                              : 700 Кбит/сек
Альбом                                   : Everything Changes
Трек                                     : Beautiful
Трек/Положение                           : 12
Исполнитель                              : Julian Lennon
Жанр                                     : Pop
Дата записи                              : 2011
Дата кодирования                         : UTC 2013-07-12 17:27:04
Дата пометки                             : UTC 2013-07-12 17:27:08
Программа кодирования                    : Easy CD-DA Extractor (http://www.poikosoft.com)
Обложка                                  : Yes

Аудио
Идентификатор                            : 1
Формат                                   : ALAC
Идентификатор кодека                     : alac
Идентификатор кодека/Информация          : Apple Lossless Audio Codec
Продолжительность                        : 4 м. 54 с.
Duration_LastFrame                       : -13 мс.
Вид битрейта                             : Переменный
Битрейт                                  : 698 Кбит/сек
Каналы                                   : 2 канала
Частота                                  : 44,1 КГц
Битовая глубина                          : 16 бит
Размер потока                            : 24,5 Мбайт (100%)
Язык                                     : English
Дата кодирования                         : UTC 2013-07-12 17:27:04
Дата пометки                             : UTC 2013-07-12 17:27:08
Код:

-----------------------

DON'T MODIFY THIS FILE

-----------------------

PERFORMER: auCDtect Task Manager, ver. 1.6.0 RC1 build 1.6.0.1
Copyright (c) 2008-2010 y-soft. All rights reserved
http://y-soft.org

ANALYZER: auCDtect: CD records authenticity detector, version 0.8.2
Copyright (c) 2004 Oleg Berngardt. All rights reserved.
Copyright (c) 2004 Alexander Djourik. All rights reserved.

FILE: 12. Beautiful.m4a
  Size: 25802557 Hash: 024A8B513FB192CF60595051E3A573FD Accuracy: -m0
  Conclusion: CDDA 100%
  Signature: A62E65D2DBA8244F71BFA535121FE6B5D63DA7FF
FILE: 11. Don't Wake Me Up.m4a
  Size: 32710774 Hash: AF30FDF4FEDFAEF9856B05477F2EF85B Accuracy: -m0
  Conclusion: CDDA 100%
  Signature: B1319FB75E171420BFDD8862E4E0C77A7E6B33E4
FILE: 10. Guess It Was Me.m4a
  Size: 27500405 Hash: DB3F8FA1E040E44515C2E554C4E6BCC1 Accuracy: -m0
  Conclusion: CDDA 100%
  Signature: 5FB79938AC6B2B5E485590617117524A77A3E44F
FILE: 09. Never Let You Go.m4a
  Size: 27050001 Hash: 9553A055CC4A7C2B6F5D82E4593E591F Accuracy: -m0
  Conclusion: CDDA 100%
  Signature: 0F66EC62FCB3D387F005F2088B2DB5EE0F84F284
FILE: 08. Disconnected.m4a
  Size: 48078054 Hash: 52CD89CD53075ED37D9FABAD7ADBCBC9 Accuracy: -m0
  Conclusion: CDDA 100%
  Signature: FD86EA7F5B1C4BA2FDE9BC11D1DDF56B63901540
FILE: 07. Always.m4a
  Size: 42552788 Hash: 3308A328801EAAC478A030C83221B338 Accuracy: -m0
  Conclusion: CDDA 100%
  Signature: 1D43AAFDD67A11443A42D05C25F788FE1DDEF31A
FILE: 06. Just for You.m4a
  Size: 32875776 Hash: 9FF3FA5AAE956100C419E069EEC19694 Accuracy: -m0
  Conclusion: CDDA 100%
  Signature: F454C293D59511D8F2BE1460D5A0D0691188BCC2
FILE: 05. Invisible.m4a
  Size: 31096934 Hash: 9D3FA991A3A42C44EC7F37DB3D4FBE94 Accuracy: -m0
  Conclusion: CDDA 100%
  Signature: 328C82E37E3452315A5385F10437B11B9D3866F5
FILE: 04. Touch the Sky.m4a
  Size: 31796691 Hash: 0FC0F08F3022AA8BBD3C53619AB6260E Accuracy: -m0
  Conclusion: CDDA 100%
  Signature: 1102E2DFAA75755B3CFB0109120A2DDFBA5EB0A4
FILE: 03. Hold On.m4a
  Size: 28114782 Hash: 537AC700E93CDB5521F205CBC1C61669 Accuracy: -m0
  Conclusion: CDDA 100%
  Signature: DC28A2F459D1B4D0AE4FE6D93F62ADEDDD0A4D0C
FILE: 02. Lookin' 4 Luv.m4a
  Size: 30050915 Hash: 6EB02D6ED2232C425D82E394737D9AC1 Accuracy: -m0
  Conclusion: CDDA 100%
  Signature: D28183269BF87B30F21B755BF9FA6CC66A687C4C
FILE: 01. Everything Changes.m4a
  Size: 28010946 Hash: 726C80A22D1B5777D492482433FC83E9 Accuracy: -m0
  Conclusion: CDDA 100%
  Signature: 660EAE8251E421E4428E0316EFB7A4AA136C7563
Время раздачи: 24/7 - круглосуточно до 3 скачавших
[NNM-Club.ru]_Julian Lennon - Everything Changes - 2011, ALAC.torrent
 Торрент: Платиновая раздача  Зарегистрирован
 
Скачать


 Зарегистрирован:   12 Июл 2013 21:01:15
 Размер:   368 MB  (
 Рейтинг:    (Голосов: 9)
 Поблагодарили:   35
 Проверка:   Оформление проверено модератором 13 Июл 2013 00:15:26
Как cкачать  ·  Как раздать  ·  Правильно оформить  ·  Поднять ратио!  
Показать сообщения:   
Начать новую тему   Ответить на тему    Торрент-трекер NNM-Club -> Аудио и Видео -> Музыка Lossless (ALAC) Часовой пояс: GMT + 3
Страница 1 из 1