Классический форум-трекер
canvas not supported
Нас вместе: 4 232 300

G.I. Joe: Бросок кобры 2 / G.I. Joe: Retaliation (2013) HDRip


 
 
RSS
Начать новую тему   Ответить на тему    Торрент-трекер NNM-Club -> Зарубежное кино -> Зарубежные Фильмы (SD)
Автор Сообщение
art-61 ®
Стаж: 12 лет 10 мес.
Сообщений: 1094
Ratio: 119.581
Поблагодарили: 143431
100%
Откуда: Санкт-Петербург
russia.gif
G.I. Joe: Бросок кобры 2 / G.I. Joe: Retaliation (2013) HDRip
«У вас есть то, что мне нужно?»
Год выпуска: 2013
Производство: США, Di Bonaventura Pictures, Hasbro Inc., Metro-Goldwyn-Mayer (MGM), Paramount Pictures, Skydance Productions
Жанр: Фантастика, Боевик, Триллер, Приключения

Перевод: Дублированный [лицензия]
Субтитры: Отсутствуют

Дата мировой премьеры: 27 марта 2013
Дата российской премьеры: 28 марта 2013, «Централ Партнершип»
Дата выхода DVD релиза: 29 июля 2013, «Новый Диск»
Дата выхода Blu-Ray релиза: 29 июля 2013, «Новый Диск»

Режиссер: Джон М. Чу
Продюсер: Лоренцо Ди Бонавентура, Брайан Голднер, Гари Барбер
Актеры: Дуэйн Джонсон, Эдрианн Палики, Брюс Уиллис, Рэй Парк, Ли Бён Хон, Ди Джей Котрона, Джонатан Прайс, Элоди Юнг, Ченнинг Татум, Люк Брейси, Рэй Стивенсон, Уолтон Гоггинс, Арнольд Вослу, Джозеф Маццелло, Ник Эриксон, RZA, Наим Альхерими, Рави Найду, Мэтт Джералд, Дуглас М. Гриффин, Джо Крест, Джеймс Карвилл, Райан Хансен, ДеРэй Дэвис, Нэйтан Такасигэ

Описание фильма:
Во второй части отряд «G.I. Joe» вновь объявит вызов группировке «Кобра» и вступит в противостояние с правительством…



Рейтинг PG-13 - Детям до 13 лет просмотр не желателен
Возраст 12+ - зрителям, достигшим 12 лет

Продолжительность: 01:50:14
Качество видео: HDRip

Видеокодек: XviD
Битрейт видео: 1325 Кбит/с
Размер кадра: 720x304
Аудиокодек: AC3, 6 ch
Битрейт аудио: 448 Кбит/с
Общее
Полное имя : E:\G.I.Joe.Retaliation.2013.HDRip.avi
Формат : AVI
Формат/Информация : Audio Video Interleave
Размер файла : 1,37 Гбайт
Продолжительность : 1 ч. 50 м.
Общий поток : 1780 Кбит/сек

Видео
Идентификатор : 0
Формат : MPEG-4 Visual
Профиль формата : Advanced Simple@L5
Параметр BVOP формата : 4
Параметр QPel формата : Нет
Параметр GMC формата : Без точки перехода
Параметр матрицы формата : Default (MPEG)
Режим смешивания : Сжатый битовый поток
Идентификатор кодека : XVID
Идентификатор кодека/Подсказка : XviD
Продолжительность : 1 ч. 50 м.
Битрейт : 1325 Кбит/сек
Ширина : 720 пикселей
Высота : 304 пикселя
Соотношение сторон : 2,35:1
Частота кадров : 23,976 кадра/сек
Цветовое пространство : YUV
Субдискретизация насыщенности : 4:2:0
Битовая глубина : 8 бит
Тип развёртки : Прогрессивная
Метод сжатия : С потерями
Бит/(Пиксели*Кадры) : 0.252
Размер потока : 1,02 Гбайт (74%)
Библиотека кодирования : XviD 1.2.1 (UTC 2008-12-04)

Аудио
Идентификатор : 1
Формат : AC-3
Формат/Информация : Audio Coding 3
Расширение режима : CM (complete main)
Параметр Endianness формата : Big
Идентификатор кодека : 2000
Продолжительность : 1 ч. 50 м.
Вид битрейта : Постоянный
Битрейт : 448 Кбит/сек
Каналы : 6 каналов
Расположение каналов : Front: L C R, Side: L R, LFE
Частота : 48,0 КГц
Битовая глубина : 16 бит
Метод сжатия : С потерями
Размер потока : 353 Мбайт (25%)
Выравнивание : Соединение по промежуткам
Продолжительность промежутка : 64 мс. (1,53 видеокадра)
Время предзагрузки промежутка : 192 мс.
Заголовок : Russ
Только пять актеров из фильма «Бросок кобры» (2009) появились и в сиквеле. Это Ли Бён Хон, Рэй Парк, Арнольд Вослу, Джонатан Прайс и Ченнинг Татум.
Глаза Змеи тренируется с персонажем по прозвищу Джинкс, одетой в красную одежду, как в фильме «Джо-солдат: Настоящий американский герой» (1987), где эта героиня появляется впервые. А позже на горе она уже в черно-желтом костюме ниндзя из сериала «Джо-солдат: Сигма-6» (2005-2006).
У командира группировки «Кобра» изменился вид шлема с последнего фильма. Теперь он стал больше похож на командира из оригинального сериала «Джо-солдат» (1985-1986).
Первоначально этот фильм был запланирован к выходу 29 июня 2012 года. В феврале студия Paramount начала большую кампанию с дорогостоящей рекламой во время Супербоула. Но в мае 2012 года было объявлено, что дата выхода фильма переносится на 29 марта 2013 года с целью добавления 3D-эффектов. Позже выяснилось, что реальная причина задержки была в том, чтобы переснять сцены с Ченнингом Татумом. Тестовая аудитория желала больше сцен с Татумом и Дуэйном Джонсоном, к тому же после успеха фильмов «Клятва» (2012) и «Мачо и ботан» (2012) Татум неожиданно стал звездой, обеспечивающей кассовые сборы.

22 ноября произошел несчастный случай, который унес жизнь сотрудника съемочной группы. Майк Хабер работал на подъемнике, который опрокинулся, что и стало причиной гибели мужчины.
Первоначальным названием фильма было G.I. Joe: Cobra Strikes («G. I. Joe: Удар кобры»).
Персонаж Дуэйна Джонсона первоначально должен был появиться в первом фильме.
Рестлер Дуэйн Джонсон (Скала) известен своей фразой «Чувствуешь, что готовит для тебя Скала?» («Do you smell what The Rock is cooking?»). Его персонаж из этого фильма в оригинальных комиксах является шеф-поваром.
Скриншоты:




Время раздачи: 24/7 по возможности
[NNM-Club.ru]_G.I.Joe.Retaliation.2013.HDRip.avi.torrent
 Торрент: Платиновая раздача  Зарегистрирован
 
Скачать


Примагнититься
 Зарегистрирован:   13 Июл 2013 19:36:52
 Размер:   1.37 GB  (
 Рейтинг:   4.6 (Голосов: 112)
 Поблагодарили:   424
 Проверка:   Оформление проверено модератором 13 Июл 2013 19:51:14
Как cкачать  ·  Как раздать  ·  Правильно оформить  ·  Поднять ратио!  
JunkBG
Стаж: 12 лет 8 мес.
Сообщений: 11
Ratio: 2.028
39.7%
Поражняк редкосный впринцыпе что и первая часть
stepa163rus
Стаж: 14 лет 7 мес.
Сообщений: 46
Ratio: 4.92
66.1%
Откуда: Федя и рация.
russia.gif
Качаю только по причине что муж попросил. Сама от первой части плевалась, думаю, что эта такая же лажа.. не уверена, что эта хуже первой части (хуже уже некуда). В общем качаю и стою на раздаче.
max7_nnmc
Uploader 100+
Стаж: 13 лет 4 мес.
Сообщений: 592
Ratio: 228.421
Раздал: 197.3 TB
99.48%
Откуда: из глубин небытия
pirates.png
Есть пару забавных моментов. Но, видимо к счастью, но всему есть придел. В этом "шедевре" концентрация бреда и клюквы высока даже для бредовуда.
meiterumi
Стаж: 11 лет 4 мес.
Сообщений: 24
Ratio: 0.349
0%
Невыносимый отстой, суперзлодей, оружие массового поражения, герои спецназовцы и весь этот бред растянут на два часа, спецэффекты есть но как-то скучно выполнены, в основном это взырывы петард и искры. Фильм даже более детский чем человек паук. Если вы уже натерпелись всего выше перечисленного в подобных фильмах советую этот не смотреть.
бомбер
Стаж: 13 лет 7 мес.
Сообщений: 8
Ratio: 4.468
1.65%
а что вы хотели от рейтинга 12+?
Aibolit68
Uploader 100+
Стаж: 17 лет 6 мес.
Сообщений: 71
Ratio: 97.736
Поблагодарили: 658
100%
russia.gif
Это не кино, это набор красивых картинок со звуковым оформлением... Бред, одним словом. Раздающему, конечно же, респект и уважуха.
Diesel88
Стаж: 11 лет 4 мес.
Сообщений: 1780
Ratio: 23.329
100%
ussr.gif
Наконец-то это кино появилось в качестве более лучшим,чем в начале Мая.Благодарю за релиз
vniko
Стаж: 14 лет 7 мес.
Сообщений: 10
Ratio: 3.46
100%
russia.gif
даже жалко потерянного на закачку времени. но хоть пару недель пораздавал эту бредовую пургу.
IMHO, лучше этого не видеть :)
Romaforest
Стаж: 13 лет
Сообщений: 18
Ratio: 11.458
35.45%
Откуда: Украина
ukraine.gif
На шестом скрине -
Горлум???!!!
Показать сообщения:   
Начать новую тему   Ответить на тему    Торрент-трекер NNM-Club -> Зарубежное кино -> Зарубежные Фильмы (SD) Часовой пояс: GMT + 3
Страница 1 из 1