Классический форум-трекер
canvas not supported
Нас вместе: 4 234 250

Piano Magic - Part Monster (2007) [WavPack] <Alternative/Indie Rock, Ambient Pop, Indie Electronic>


 
 
RSS
Начать новую тему   Ответить на тему    Торрент-трекер NNM-Club -> Архив торрентов -> Архив Музыки
Автор Сообщение
Blixa ®
Стаж: 16 лет 11 мес.
Сообщений: 80
Ratio: 5.727
Поблагодарили: 487
100%
ukraine.gif
Piano Magic - Part Monster (2007)
Год: 2007
Жанр: Alternative/Indie Rock, Ambient Pop, Indie Electronic
Продолжительность: 00:48:20

Кодек: FLAC
Битрейт: Lossless
Тип раздачи: image+.cue

Треклист:
1 The Last Engineer (5:39)
2 England's Always Better (As You're Pulling Away) (6:04)
Vocals (Other Male Voice), Lyrics By (Words) - Simon Rivers
Written By - Rivers
3 Incurable (Reprise) (4:45)
Written By - David Guillou
4 Soldier Song (5:01)
5 The King Cannot Be Found (3:54)
6 Great Escapes (4:38)
7 Cities & Factories (5:16)
8 Halfway Through (4:12)
9 Saints Preserve Us (5:53)
10 Part-Monster (2:58)
Mixed By - Glen Johnson , Jerome Tcherneyan
Recorded By - Glen Johnson , Jerome Tcherneyan
Код:
Exact Audio Copy V0.99 prebeta 3 from 28. July 2007

EAC extraction logfile from December 2007

Piano Magic / Part Monster

Used drive  : PLEXTOR DVDR   PX-760A   Adapter: 0  ID: 1

Read mode               : Secure
Utilize accurate stream : Yes
Defeat audio cache      : Yes
Make use of C2 pointers : No

Read offset correction                      : 30
Overread into Lead-In and Lead-Out          : No
Fill up missing offset samples with silence : Yes
Delete leading and trailing silent blocks   : No
Null samples used in CRC calculations       : Yes
Used interface                              : Installed external ASPI interface

Used output format : Internal WAV Routines
Sample format      : 44.100 Hz; 16 Bit; Stereo

TOC of the extracted CD

     Track |   Start  |  Length  | Start sector | End sector
    ---------------------------------------------------------
        1  |  0:00.00 |  5:38.58 |         0    |    25407
        2  |  5:38.58 |  6:03.73 |     25408    |    52705
        3  | 11:42.56 |  4:45.27 |     52706    |    74107
        4  | 16:28.08 |  5:00.73 |     74108    |    96680
        5  | 21:29.06 |  3:53.58 |     96681    |   114213
        6  | 25:22.64 |  4:37.67 |    114214    |   135055
        7  | 30:00.56 |  5:15.70 |    135056    |   158750
        8  | 35:16.51 |  4:11.61 |    158751    |   177636
        9  | 39:28.37 |  5:53.36 |    177637    |   204147
       10  | 45:21.73 |  2:58.23 |    204148    |   217520

Range status and errors

Selected range

     Filename X:\Audio-RIP\Piano Magic - Part Monster.wav

     Peak level 100.0 %
     Range quality 99.9 %
     Test CRC D23CDB6C
     Copy CRC D23CDB6C
     Copy OK

No errors occurred

End of status report
Код:
-----------------------

DON'T MODIFY THIS FILE

-----------------------

PERFORMER: auCDtect Task Manager, ver. 1.6.0 RC1 build 1.6.0.1
Copyright (c) 2008-2010 y-soft. All rights reserved
http://y-soft.org

ANALYZER: auCDtect: CD records authenticity detector, version 0.8.2
Copyright (c) 2004 Oleg Berngardt. All rights reserved.
Copyright (c) 2004 Alexander Djourik. All rights reserved.

FILE: Piano Magic - Part Monster.wv
  Size: 325511812 Hash: F5732551FBB05F0DF05404445786B68B Accuracy: -m0
  Conclusion: CDDA 100%
  Signature: C42B773DC99CC193156D7970E237F1000A13A3EF
Код:
REM GENRE Rock
REM DATE 2007
REM DISCID 700B540A
REM COMMENT "ExactAudioCopy v0.99pb3"
PERFORMER "Piano Magic"
TITLE "Part Monster"
FILE "Piano Magic - Part Monster.wav" WAVE
  TRACK 01 AUDIO
    TITLE "The Last Engineer"
    PERFORMER "Piano Magic"
    INDEX 01 00:00:00
  TRACK 02 AUDIO
    TITLE "England's Always Better(As You're Pulling away)"
    PERFORMER "Piano Magic"
    INDEX 01 05:38:58
  TRACK 03 AUDIO
    TITLE "Incurable (Reprise)"
    PERFORMER "Piano Magic"
    INDEX 01 11:42:56
  TRACK 04 AUDIO
    TITLE "Soldier Song"
    PERFORMER "Piano Magic"
    INDEX 01 16:28:08
  TRACK 05 AUDIO
    TITLE "The King Cannot Be Found"
    PERFORMER "Piano Magic"
    INDEX 01 21:29:06
  TRACK 06 AUDIO
    TITLE "Great Escapes"
    PERFORMER "Piano Magic"
    INDEX 01 25:22:64
  TRACK 07 AUDIO
    TITLE "Cities & Factories"
    PERFORMER "Piano Magic"
    INDEX 01 30:00:56
  TRACK 08 AUDIO
    TITLE "Halfway Through"
    PERFORMER "Piano Magic"
    INDEX 01 35:16:51
  TRACK 09 AUDIO
    TITLE "Saints Preserve Us"
    PERFORMER "Piano Magic"
    INDEX 01 39:28:37
  TRACK 10 AUDIO
    TITLE "Part-Monster"
    PERFORMER "Piano Magic"
    INDEX 00 45:20:44
    INDEX 01 45:21:73
Время раздачи: С 17:00 до 23:30
Piano Magic - Part Monster (2007) [Eac WavPack Scans].torrent
 Торрент: Платиновая раздача  Зарегистрирован
 
Скачать


 Зарегистрирован:   16 Фев 2008 20:39:35
 Размер:   323 MB  (
 Рейтинг:    (Голосов: 7)
 Поблагодарили:   31
 Проверка:   Оформление проверено модератором 18 Фев 2008 08:34:38
Как cкачать  ·  Как раздать  ·  Правильно оформить  ·  Поднять ратио!  
Blixa ®
Стаж: 16 лет 11 мес.
Сообщений: 80
Ratio: 5.727
Поблагодарили: 487
100%
ukraine.gif
Замечательно, - 9 скачавших и не одной благодарности. Это неплохо характеризует местную публику. Повидимому с эксклюзивом пора заканчивать.
ANS19552
Стаж: 16 лет 6 мес.
Сообщений: 5
Ratio: 1.432
2%
Огромное спасибо сразу за десятерых!
Blixa ®
Стаж: 16 лет 11 мес.
Сообщений: 80
Ratio: 5.727
Поблагодарили: 487
100%
ukraine.gif
:-) Другое дело.
А у меня есть ещё... :ангел:
jman
Uploader 100+
 
Стаж: 16 лет 9 мес.
Сообщений: 73
Ratio: 135.808
Поблагодарили: 204
100%
russia.gif
ждём ;)
shin-du
Гость
наслышан об этом релизе очень хочу себе его ...
DesideriuM
Реставратор Клуба
 
Стаж: 14 лет 8 мес.
Сообщений: 1368
Ratio: 68.467
Поблагодарили: 14293
100%
belarus.gif
Код:
Piano Magic - Part Monster (2007) [WavPack|Lossless] <Alternative/Indie Rock, Ambient Pop, Indie Electronic>


Piano Magic - Part Monster (2007)
Год: 2007
Жанр: Alternative/Indie Rock, Ambient Pop, Indie Electronic
Продолжительность: 00:48:20

Кодек: FLAC
Битрейт: Lossless
Тип раздачи: image+.cue

Треклист:
1 The Last Engineer (5:39)
2 England's Always Better (As You're Pulling Away) (6:04)
Vocals (Other Male Voice), Lyrics By (Words) - Simon Rivers
Written By - Rivers
3 Incurable (Reprise) (4:45)
Written By - David Guillou
4 Soldier Song (5:01)
5 The King Cannot Be Found (3:54)
6 Great Escapes (4:38)
7 Cities & Factories (5:16)
8 Halfway Through (4:12)
9 Saints Preserve Us (5:53)
10 Part-Monster (2:58)
Mixed By - Glen Johnson , Jerome Tcherneyan
Recorded By - Glen Johnson , Jerome Tcherneyan
Exact Audio Copy V0.99 prebeta 3 from 28. July 2007

EAC extraction logfile from December 2007

Piano Magic / Part Monster

Used drive : PLEXTOR DVDR PX-760A Adapter: 0 ID: 1

Read mode : Secure
Utilize accurate stream : Yes
Defeat audio cache : Yes
Make use of C2 pointers : No

Read offset correction : 30
Overread into Lead-In and Lead-Out : No
Fill up missing offset samples with silence : Yes
Delete leading and trailing silent blocks : No
Null samples used in CRC calculations : Yes
Used interface : Installed external ASPI interface

Used output format : Internal WAV Routines
Sample format : 44.100 Hz; 16 Bit; Stereo

TOC of the extracted CD

Track | Start | Length | Start sector | End sector
---------------------------------------------------------
1 | 0:00.00 | 5:38.58 | 0 | 25407
2 | 5:38.58 | 6:03.73 | 25408 | 52705
3 | 11:42.56 | 4:45.27 | 52706 | 74107
4 | 16:28.08 | 5:00.73 | 74108 | 96680
5 | 21:29.06 | 3:53.58 | 96681 | 114213
6 | 25:22.64 | 4:37.67 | 114214 | 135055
7 | 30:00.56 | 5:15.70 | 135056 | 158750
8 | 35:16.51 | 4:11.61 | 158751 | 177636
9 | 39:28.37 | 5:53.36 | 177637 | 204147
10 | 45:21.73 | 2:58.23 | 204148 | 217520

Range status and errors

Selected range

Filename X:\Audio-RIP\Piano Magic - Part Monster.wav

Peak level 100.0 %
Range quality 99.9 %
Test CRC D23CDB6C
Copy CRC D23CDB6C
Copy OK

No errors occurred

End of status report
-----------------------

DON'T MODIFY THIS FILE

-----------------------

PERFORMER: auCDtect Task Manager, ver. 1.6.0 RC1 build 1.6.0.1
Copyright (c) 2008-2010 y-soft. All rights reserved
http://y-soft.org

ANALYZER: auCDtect: CD records authenticity detector, version 0.8.2
Copyright (c) 2004 Oleg Berngardt. All rights reserved.
Copyright (c) 2004 Alexander Djourik. All rights reserved.

FILE: Piano Magic - Part Monster.wv
Size: 325511812 Hash: F5732551FBB05F0DF05404445786B68B Accuracy: -m0
Conclusion: CDDA 100%
Signature: C42B773DC99CC193156D7970E237F1000A13A3EF
REM GENRE Rock
REM DATE 2007
REM DISCID 700B540A
REM COMMENT "ExactAudioCopy v0.99pb3"
PERFORMER "Piano Magic"
TITLE "Part Monster"
FILE "Piano Magic - Part Monster.wav" WAVE
TRACK 01 AUDIO
TITLE "The Last Engineer"
PERFORMER "Piano Magic"
INDEX 01 00:00:00
TRACK 02 AUDIO
TITLE "England's Always Better(As You're Pulling away)"
PERFORMER "Piano Magic"
INDEX 01 05:38:58
TRACK 03 AUDIO
TITLE "Incurable (Reprise)"
PERFORMER "Piano Magic"
INDEX 01 11:42:56
TRACK 04 AUDIO
TITLE "Soldier Song"
PERFORMER "Piano Magic"
INDEX 01 16:28:08
TRACK 05 AUDIO
TITLE "The King Cannot Be Found"
PERFORMER "Piano Magic"
INDEX 01 21:29:06
TRACK 06 AUDIO
TITLE "Great Escapes"
PERFORMER "Piano Magic"
INDEX 01 25:22:64
TRACK 07 AUDIO
TITLE "Cities & Factories"
PERFORMER "Piano Magic"
INDEX 01 30:00:56
TRACK 08 AUDIO
TITLE "Halfway Through"
PERFORMER "Piano Magic"
INDEX 01 35:16:51
TRACK 09 AUDIO
TITLE "Saints Preserve Us"
PERFORMER "Piano Magic"
INDEX 01 39:28:37
TRACK 10 AUDIO
TITLE "Part-Monster"
PERFORMER "Piano Magic"
INDEX 00 45:20:44
INDEX 01 45:21:73
Время раздачи: С 17:00 до 23:30

Код:
[align=center][font="Tahoma"][size=20][b]Piano Magic - Part Monster (2007)[/b][/size][/font][/align]
[poster=right]http://img16.imageshack.us/img16/3564/dn5x.jpg[/poster]

[b]Год:[/b] 2007
[b]Жанр:[/b] Alternative/Indie Rock, Ambient Pop, Indie Electronic
[b]Продолжительность:[/b] 00:48:20

[b]Кодек:[/b] FLAC
[b]Битрейт:[/b] Lossless
[b]Тип раздачи:[/b] image+.cue

[b]Треклист:[/b]
1   The Last Engineer (5:39)
2   England's Always Better (As You're Pulling Away) (6:04)
    Vocals (Other Male Voice), Lyrics By (Words) - Simon Rivers
    Written By - Rivers
3   Incurable (Reprise) (4:45)
    Written By - David Guillou
4   Soldier Song (5:01)
5   The King Cannot Be Found (3:54)
6   Great Escapes (4:38)
7   Cities & Factories (5:16)
8   Halfway Through (4:12)
9   Saints Preserve Us (5:53)
10   Part-Monster (2:58)
    Mixed By - Glen Johnson , Jerome Tcherneyan
    Recorded By - Glen Johnson , Jerome Tcherneyan
[hide=Отчёт ЕАС:]Exact Audio Copy V0.99 prebeta 3 from 28. July 2007

EAC extraction logfile from December 2007

Piano Magic / Part Monster

Used drive  : PLEXTOR DVDR   PX-760A   Adapter: 0  ID: 1

Read mode               : Secure
Utilize accurate stream : Yes
Defeat audio cache      : Yes
Make use of C2 pointers : No

Read offset correction                      : 30
Overread into Lead-In and Lead-Out          : No
Fill up missing offset samples with silence : Yes
Delete leading and trailing silent blocks   : No
Null samples used in CRC calculations       : Yes
Used interface                              : Installed external ASPI interface

Used output format : Internal WAV Routines
Sample format      : 44.100 Hz; 16 Bit; Stereo

TOC of the extracted CD

     Track |   Start  |  Length  | Start sector | End sector
    ---------------------------------------------------------
        1  |  0:00.00 |  5:38.58 |         0    |    25407
        2  |  5:38.58 |  6:03.73 |     25408    |    52705
        3  | 11:42.56 |  4:45.27 |     52706    |    74107
        4  | 16:28.08 |  5:00.73 |     74108    |    96680
        5  | 21:29.06 |  3:53.58 |     96681    |   114213
        6  | 25:22.64 |  4:37.67 |    114214    |   135055
        7  | 30:00.56 |  5:15.70 |    135056    |   158750
        8  | 35:16.51 |  4:11.61 |    158751    |   177636
        9  | 39:28.37 |  5:53.36 |    177637    |   204147
       10  | 45:21.73 |  2:58.23 |    204148    |   217520

Range status and errors

Selected range

     Filename X:\Audio-RIP\Piano Magic - Part Monster.wav

     Peak level 100.0 %
     Range quality 99.9 %
     Test CRC D23CDB6C
     Copy CRC D23CDB6C
     Copy OK

No errors occurred

End of status report
[/hide]
[hide=Отчёт auCDtect Task manager:]-----------------------

DON'T MODIFY THIS FILE

-----------------------

PERFORMER: auCDtect Task Manager, ver. 1.6.0 RC1 build 1.6.0.1
Copyright (c) 2008-2010 y-soft. All rights reserved
http://y-soft.org

ANALYZER: auCDtect: CD records authenticity detector, version 0.8.2
Copyright (c) 2004 Oleg Berngardt. All rights reserved.
Copyright (c) 2004 Alexander Djourik. All rights reserved.

FILE: Piano Magic - Part Monster.wv
  Size: 325511812 Hash: F5732551FBB05F0DF05404445786B68B Accuracy: -m0
  Conclusion: CDDA 100%
  Signature: C42B773DC99CC193156D7970E237F1000A13A3EF
[/hide]
[hide=Содержание индексной карты (.CUE)]REM GENRE Rock
REM DATE 2007
REM DISCID 700B540A
REM COMMENT "ExactAudioCopy v0.99pb3"
PERFORMER "Piano Magic"
TITLE "Part Monster"
FILE "Piano Magic - Part Monster.wav" WAVE
  TRACK 01 AUDIO
    TITLE "The Last Engineer"
    PERFORMER "Piano Magic"
    INDEX 01 00:00:00
  TRACK 02 AUDIO
    TITLE "England's Always Better(As You're Pulling away)"
    PERFORMER "Piano Magic"
    INDEX 01 05:38:58
  TRACK 03 AUDIO
    TITLE "Incurable (Reprise)"
    PERFORMER "Piano Magic"
    INDEX 01 11:42:56
  TRACK 04 AUDIO
    TITLE "Soldier Song"
    PERFORMER "Piano Magic"
    INDEX 01 16:28:08
  TRACK 05 AUDIO
    TITLE "The King Cannot Be Found"
    PERFORMER "Piano Magic"
    INDEX 01 21:29:06
  TRACK 06 AUDIO
    TITLE "Great Escapes"
    PERFORMER "Piano Magic"
    INDEX 01 25:22:64
  TRACK 07 AUDIO
    TITLE "Cities & Factories"
    PERFORMER "Piano Magic"
    INDEX 01 30:00:56
  TRACK 08 AUDIO
    TITLE "Halfway Through"
    PERFORMER "Piano Magic"
    INDEX 01 35:16:51
  TRACK 09 AUDIO
    TITLE "Saints Preserve Us"
    PERFORMER "Piano Magic"
    INDEX 01 39:28:37
  TRACK 10 AUDIO
    TITLE "Part-Monster"
    PERFORMER "Piano Magic"
    INDEX 00 45:20:44
    INDEX 01 45:21:73
[/hide]

[b]Время раздачи:[/b] С 17:00 до 23:30
Топик был перенесен из форума Alternative, Punk (Lossless) в форум Архив Музыки

Причина переноса: Отсутствие сидов
DesideriuM
Показать сообщения:   
Начать новую тему   Ответить на тему    Торрент-трекер NNM-Club -> Архив торрентов -> Архив Музыки Часовой пояс: GMT + 3
Страница 1 из 1