Классический форум-трекер
canvas not supported
Нас вместе: 4 232 360

Спартак: Боги Арены / Spartacus: Gods of the Arena (Сезон 1, серия 06 из 6) (2011) 2*Blu-Ray [1080p]


 
 
RSS
Начать новую тему   Ответить на тему    Торрент-трекер NNM-Club -> Зарубежные сериалы
Автор Сообщение
Луць ®
Стаж: 11 лет 4 мес.
Сообщений: 880
Ratio: 649.72
Раздал: 52.25 TB
Поблагодарили: 47551
100%
Откуда: г.Луцк
ukraine.gif
Спартак: Боги Арены / Spartacus: Gods of the Arena (Сезон 1, серия 06 из 6) (2011) 2*Blu-Ray
Год выпуска: 2011
Жанр: Боевик, Драма, Приключения
Выпущено: США, Starz Media, Starz Productions

Перевод: Многоголосый закадровый [LostFilm], Дублированный [Рен-ТВ] субтитры на не переведенные места
Вид субтитров: Вшитые отключаемые
Язык субтитров: Английские, русские (Форсированные), русские (Полные)

Режиссер: Рик Джейкобсон
Актеры: Лесли-Энн Брандт, Люси Лоулесс, Джессика Грэйс Смит, Ник Тарабэй, Райхо Василев, Мариса Рамирез, Ману Беннетт, Дастин Клер, Джон Ханна, Питер Менса

Описание фильма:
Нам показывается время, когда Батиат взял у своего отца узды правления в свои руки. Он активно тренирует гладиаторов, стремясь принести славу своему дому. Со своей красивой и коварной женой Лукрецией он не остановится ни перед чем, пытаясь занести свое имя в историю.Батиат сосредотачивает свои усилия на плутоватом гладиаторе Ганнике, человеке, умение которого обращаться с мечом непревзойденно. Он всегда сражается так, как будто это его последний бой...


Рейтинг R - Подростки до 17 лет допускаются на фильм только в сопровождении одного из родителей, либо законного представителя

Дата мировой премьеры: 21 января 2011

Релиз от: Релиз группа:
Продолжительность: 00:59:47; 00:55:11; 00:53:46; 00:52:48; 01:08:59; 00:58:02
Качество видео: Blu-Ray

Диск 1:
Видеокодек: MPEG-4 AVC/H.264
Контейнер: BDMV
Размер кадра: 1920x1080p
Битрейт видео: 22853 Кбит/с
Аудио Eng: Английский (TrueHD, 6 ch, 1525 Кбит/с) [Оригинальный]
Аудио Rus: Русский (DTS-HD MA, 6 ch, 2199 Кбит/с) [Многоголосый закадровый]
Аудио Rus: Русский (AC3, 2 ch, 192 Кбит/с) [Дублированный]


Диск 2:
Видеокодек: MPEG-4 AVC/H.264
Контейнер: ISO
Размер кадра: 1920x1080p
Битрейт видео: 22886 Кбит/с
Аудио Eng: Английский (TrueHD, 6 ch, 1678 Кбит/с) [Оригинальный]
Аудио Rus: Русский (DTS-HD MA, 6 ch, 2325 Кбит/с) [Многоголосый закадровый]
Аудио Rus: Русский (AC3, 2 ch, 192 Кбит/с) [Дублированный]
DISC INFO:

Disc Title: DISC1_BLUEBIRD
Disc Size: 50 007 933 740 bytes
Protection: AACS
BD-Java: Yes
BDInfo: 0.5.8

PLAYLIST REPORT:

Name: 00111.MPLS
Length: 0:59:47.584 (h:m:s.ms)
Size: 13 437 468 672 bytes
Total Bitrate: 29,96 Mbps

VIDEO:

Codec Bitrate Description
----- ------- -----------
MPEG-4 AVC Video 22853 kbps 1080p / 23,976 fps / 16:9 / High Profile 4.1

AUDIO:

Codec Language Bitrate Description
----- -------- ------- -----------
Dolby TrueHD Audio English 1525 kbps 5.1 / 48 kHz / 1525 kbps / 16-bit (AC3 Embedded: 5.1 / 48 kHz / 640 kbps)
DTS-HD Master Audio Russian 2199 kbps 5.1 / 48 kHz / 2199 kbps / 16-bit (DTS Core: 5.1 / 48 kHz / 1509 kbps / 16-bit)
Dolby Digital Audio Russian 192 kbps 2.0 / 48 kHz / 192 kbps / DN -4dB / Dolby Surround

SUBTITLES:

Codec Language Bitrate Description
----- -------- ------- -----------
Presentation Graphics English 49,029 kbps
Presentation Graphics Russian 3,309 kbps
Presentation Graphics Russian 73,523 kbps

FILES:

Name Time In Length Size Total Bitrate
---- ------- ------ ---- -------------
00104.M2TS 0:00:00.000 0:01:02.061 274 882 560 35 433
00105.M2TS 0:01:02.061 0:58:45.522 13 162 586 112 29 868

CHAPTERS:

Number Time In Length Avg Video Rate Max 1-Sec Rate Max 1-Sec Time Max 5-Sec Rate Max 5-Sec Time Max 10Sec Rate Max 10Sec Time Avg Frame Size Max Frame Size Max Frame Time
------ ------- ------ -------------- -------------- -------------- -------------- -------------- -------------- -------------- -------------- -------------- --------------
1 0:00:00.000 0:01:02.061 22 632 kbps 41 105 kbps 00:00:56.556 27 732 kbps 00:00:43.126 26 716 kbps 00:00:38.413 117 991 bytes 694 884 bytes 00:00:56.765
2 0:01:02.061 0:12:14.900 22 459 kbps 42 829 kbps 00:01:05.523 29 748 kbps 00:12:34.587 28 380 kbps 00:12:33.210 117 092 bytes 756 621 bytes 00:01:13.907
3 0:13:16.962 0:14:26.240 23 491 kbps 41 977 kbps 00:22:26.428 29 393 kbps 00:22:51.870 28 878 kbps 00:22:50.660 122 469 bytes 615 213 bytes 00:21:10.310
4 0:27:43.203 0:10:00.224 23 024 kbps 34 562 kbps 00:27:56.883 29 486 kbps 00:28:39.092 28 841 kbps 00:28:38.508 120 037 bytes 662 995 bytes 00:27:57.258
5 0:37:43.427 0:17:37.556 23 188 kbps 39 216 kbps 00:48:13.932 30 114 kbps 00:47:25.175 29 101 kbps 00:49:26.755 120 894 bytes 675 557 bytes 00:50:24.354
6 0:55:20.984 0:02:33.319 22 152 kbps 34 554 kbps 00:55:29.451 27 922 kbps 00:55:28.533 26 445 kbps 00:55:56.353 115 492 bytes 543 206 bytes 00:55:29.492
7 0:57:54.304 0:01:53.279 17 565 kbps 43 517 kbps 00:59:40.368 30 463 kbps 00:59:36.864 26 666 kbps 00:59:32.652 91 644 bytes 719 549 bytes 00:59:35.363
DISC INFO:

Disc Title: SPARTACUS_GOTA_D2_BLUEBIRD
Disc Size: 40 055 313 488 bytes
Protection: AACS
BD-Java: Yes
Extras: Blu-ray 3D
BDInfo: 0.5.8

PLAYLIST REPORT:

Name: 00110.MPLS
Length: 1:08:59.135 (h:m:s.ms)
Size: 15 734 464 512 bytes
Total Bitrate: 30,41 Mbps

VIDEO:

Codec Bitrate Description
----- ------- -----------
MPEG-4 AVC Video 22886 kbps 1080p / 23,976 fps / 16:9 / High Profile 4.1

AUDIO:

Codec Language Bitrate Description
----- -------- ------- -----------
Dolby TrueHD Audio English 1678 kbps 5.1 / 48 kHz / 1678 kbps / 16-bit (AC3 Embedded: 5.1 / 48 kHz / 640 kbps)
DTS-HD Master Audio Russian 2325 kbps 5.1 / 48 kHz / 2325 kbps / 16-bit (DTS Core: 5.1 / 48 kHz / 1509 kbps / 16-bit)
Dolby Digital Audio Russian 192 kbps 2.0 / 48 kHz / 192 kbps / DN -4dB / Dolby Surround

SUBTITLES:

Codec Language Bitrate Description
----- -------- ------- -----------
Presentation Graphics English 42,832 kbps
Presentation Graphics Russian 3,293 kbps
Presentation Graphics Russian 33,141 kbps

FILES:

Name Time In Length Size Total Bitrate
---- ------- ------ ---- -------------
00102.M2TS 0:00:00.000 0:00:52.051 197 154 816 30 301
00103.M2TS 0:00:52.051 1:08:07.083 15 537 309 696 30 413

CHAPTERS:

Number Time In Length Avg Video Rate Max 1-Sec Rate Max 1-Sec Time Max 5-Sec Rate Max 5-Sec Time Max 10Sec Rate Max 10Sec Time Avg Frame Size Max Frame Size Max Frame Time
------ ------- ------ -------------- -------------- -------------- -------------- -------------- -------------- -------------- -------------- -------------- --------------
1 0:00:00.000 0:00:52.051 22 171 kbps 42 147 kbps 00:00:25.692 31 212 kbps 00:00:25.316 29 080 kbps 00:00:31.698 115 589 bytes 664 359 bytes 00:00:01.835
2 0:00:52.051 0:19:22.035 23 841 kbps 42 975 kbps 00:00:55.513 30 535 kbps 00:17:40.350 29 755 kbps 00:18:44.248 124 298 bytes 758 837 bytes 00:01:03.021
3 0:20:14.087 0:09:00.665 24 831 kbps 41 509 kbps 00:25:27.067 30 694 kbps 00:24:33.096 29 224 kbps 00:24:34.472 129 458 bytes 619 362 bytes 00:25:27.275
4 0:29:14.752 0:16:25.859 22 450 kbps 42 221 kbps 00:44:09.146 27 864 kbps 00:31:57.582 27 068 kbps 00:31:53.453 117 044 bytes 742 291 bytes 00:44:09.438
5 0:45:40.612 0:15:14.455 21 769 kbps 35 506 kbps 00:48:12.097 27 914 kbps 00:54:09.663 26 784 kbps 00:54:03.782 113 491 bytes 558 823 bytes 01:00:17.655
6 1:00:55.068 0:06:10.620 22 618 kbps 41 381 kbps 01:05:19.081 29 823 kbps 01:05:19.081 29 427 kbps 01:05:19.123 117 922 bytes 672 833 bytes 01:05:19.248
7 1:07:05.688 0:01:53.446 17 838 kbps 43 431 kbps 01:08:51.752 31 422 kbps 01:08:48.249 27 123 kbps 01:08:44.245 93 065 bytes 719 929 bytes 01:08:46.747
1. Past Transgressions / Былые проступки*
2. Missio / Пощада
3. Paterfamilias / Глава семьи*
4. Beneath the Mask / Под маской*
5. Reckoning / Расплата*
6. The Bitter End / Горький финал*

* - расширенная версия
на диске №2
• 3Д: "Кольцо Огня" - боевая сцена;
• Документальные фильмы;
• Анонсы.
Диск пересобран АДмин из оригинального блурэя, используемое програмное обеспечение: BD Reauthor от DVDLogic Software http://www.dvd-logic.com и Sonic Scenarist BD, Sony Sound Forge, Eac3to. Структура диска полностью сохранена.
Воспроизведение проверено на Arcsoft Total Media Player 5, Arcsoft Total Media Player 3, Power DVD10, Scenarist QC 1.5, Dune BD-Prime 3.0 и бытовом блурей плеере LG BX-580. (Содержимое папки "AACS" перенесено в "ANY!").

За исходные аудио-дорожки (перекроены мной под БД) и субтитры (убран мат + легкая косметика) большое спасибо vlaluk!

С меню диска выбираются именно форсированные субтитры, т.к. есть несколько сцен без аудио-перевода; полные русские субтитры и озвучка Рен ТВ - доступны опционально, с помощью меню проигрывателя.

Контейнер: BDMV (диск1) ISO (диск2 - в допах 3Д, посему в образе)
Без разрешения автора раздачи на первоисточнике запрещается выкладывать на других ресурсах!!!
Для сайта NNM-Club получено разрешение автора раздачи.

Скриншоты:


Релизы "Спартак: Боги Арены" на nnm-club.me

Время раздачи: с 10:00 до 23:00 (мск)
[NNM-Club.ru]_Spartak - Bogi areny [sezon 1] (2011) Blu-ray 2h [1080p].torrent
 Торрент: Платиновая раздача  Зарегистрирован
 
Скачать


 Зарегистрирован:   15 Июл 2013 16:45:34
 Размер:   83.9 GB  (
 Рейтинг:   4.7 (Голосов: 56)
 Поблагодарили:   175
 Проверка:   Оформление проверено модератором 15 Июл 2013 23:20:36
Как cкачать  ·  Как раздать  ·  Правильно оформить  ·  Поднять ратио!  
Луць ®
Стаж: 11 лет 4 мес.
Сообщений: 880
Ratio: 649.72
Раздал: 52.25 TB
Поблагодарили: 47551
100%
Откуда: г.Луцк
ukraine.gif
Всем прятного просмотра!
Raptor303
Стаж: 12 лет 8 мес.
Сообщений: 8819
Ratio: 44.268
100%
estonia.gif
Смотрел этот нулевой сезон... Пошлятина та еще )
Интересный сериал, только вот сценки некоторые совсем не нужны. Судя по всему, так действительно и было в те времена.

Серия "Спартак" состоит из:
Сезон 0 (приквел): Боги Арены
Сезон 1: Спартак - Кровь и Песок (Blood and Sand)
Сезон 2: Спартак - Месть (Vengeance)

Сезон 1 и 2 более интересные.
amateurbeer
Стаж: 12 лет 1 мес.
Сообщений: 219
Ratio: 24.437
Раздал: 1.869 TB
100%
russia.gif
Шикарный сериал про древний Рим, :ура:
chaotixzz
Стаж: 13 лет 10 мес.
Сообщений: 29
Ratio: 2.948
11.95%
Raptor303
Забыл про Сезон 3: Спартак - Война проклятых
budha-2007
Стаж: 13 лет 7 мес.
Сообщений: 102
Ratio: 5.174
Поблагодарили: 1077
0%
russia.gif
О! То, что я искал! Два перевода в одном флаконе! Спасибо большое! :приветствую:

Только прибавьте скорости! А то не успею скачать до 1 августа! :смех:
navosha
Стаж: 13 лет 8 мес.
Сообщений: 84
Ratio: 7.197
100%
Откуда: kurgan
russia.gif
Спасибо! :D :D
Antteterin
Стаж: 10 лет 5 мес.
Сообщений: 2
Ratio: 15.643
100%
Откуда: Киров
russia.gif
Луць
докачал до 82.9% и день 3й уже с места недвигается чем может быть прична?
Valik-Hakerok
Стаж: 10 лет 11 мес.
Сообщений: 147
Ratio: 121.493
Поблагодарили: 151
100%
94.4% и скорость ужасно плохая 31-50kbs.Cиды включите пожалуйста раздачу,так фильм хочется посмотреть...
YUSSTAN
Стаж: 14 лет 4 мес.
Сообщений: 30
Ratio: 11.714
5.73%
Откуда: Санкт-Петербург
russia.gif
Какой программой ISO делался?
Ultra 9,RAR 7 -не открывают.Открывает Alcohol но, не позволяет копировать.
Алекс1975
Стаж: 13 лет 7 мес.
Сообщений: 16
Ratio: 9.264
0.45%
На раздачу бы кто встал чтоли
IDimm
Стаж: 13 лет 11 мес.
Сообщений: 546
Ratio: 771.984
Поблагодарили: 65152
100%
russia.gif
даёте скорости плиз, 50-60 кб/с - пару недель качать
alexgolubov
Стаж: 14 лет 11 мес.
Сообщений: 2
Ratio: 4.767
2.08%
Откуда: Russia
russia.gif
Встаньте на раздачу пожалуйста, а то скорости вообще нету.
Дайте посмотреть в нормальном качестве.
Показать сообщения:   
Начать новую тему   Ответить на тему    Торрент-трекер NNM-Club -> Зарубежные сериалы Часовой пояс: GMT + 3
Страница 1 из 1