Классический форум-трекер
canvas not supported
Нас вместе: 4 232 369

Курс на столкновение / Проблемный рейс / Collision Course (2012) BDRemux [1080p]


 
 
RSS
Начать новую тему   Ответить на тему    Торрент-трекер NNM-Club -> Архив торрентов -> Архив Видео. Кино, Театра
Автор Сообщение
Луць ®
Стаж: 11 лет 4 мес.
Сообщений: 880
Ratio: 649.72
Раздал: 52.25 TB
Поблагодарили: 47551
100%
Откуда: г.Луцк
ukraine.gif
Курс на столкновение / Проблемный рейс / Collision Course (2012) BDRemux
Год выпуска: 2012
Жанр: Фантастика, Драма, Триллер
Выпущено: США, Marvista Entertainment

Перевод: Многоголосый закадровый
Язык субтитров: Нет

Режиссер: Фред Олен Рей
Актеры: Дэвид Чокачи, Ди Уоллас, Тиа Каррере, Вильям Грегори Ли, Николас Гуилак, Меган Маклеод, Тим Эбелл, Брук Кучна, Марк Барнс

Описание фильма:
Кейт Паркс провела последний год в рекламном туре в поддержку своей книги, в которой она рассказала о том, как пытались скрыть смерть ее мужа в авиакатастрофе. Теперь все, что она хочет, это вернуться домой, к своей 15-летней дочери Саманте. Но авиалайнер, на котором летит Кейт, повреждает сильная солнечная вспышка, в результате которой один пилот погибает, второй оказывается без сознания, а вся электроника выходит из строя... Кейт вместе со стюардом Джейком пытается взять под контроль самолет.


Дата мировой премьеры: 7 декабря 2012
Дата российской премьеры: 1 ноября 2012
Продолжительность: 01:28:54
Качество видео: BDRemux

Видеокодек: MPEG-4 AVC/H.264
Контейнер: MKV
Размер кадра: 1920x1080p

Битрейт видео: 22014 Кбит/с
Аудио #1: Русский (AC3, 2 ch, 192 Кбит/с) [Многоголосый закадровый]

Общее
Уникальный идентификатор : 239711920842401582218778242589597755310 (0xB456D62DE3589F5F9032A76FF9F5E7AE)
Полное имя : D:\Kurs na stolknovenie (2012) Blu-Ray Remux [1080p].mkv
Формат : Matroska
Версия формата : Version 4 / Version 2
Размер файла : 13,8 Гбайт
Продолжительность : 1 ч. 29 м.
Режим общего битрейта : Переменный
Общий поток : 22,2 Мбит/сек
Дата кодирования : UTC 2013-07-13 17:10:25
Программа кодирования : mkvmerge v6.3.0 ('You can't stop me!') built on Jun 28 2013 20:09:41
Библиотека кодирования : libebml v1.3.0 + libmatroska v1.4.0

Видео
Идентификатор : 1
Формат : AVC
Формат/Информация : Advanced Video Codec
Профиль формата : High@L4.1
Параметр CABAC формата : Да
Параметр ReFrames формата : 4 кадра
Идентификатор кодека : V_MPEG4/ISO/AVC
Продолжительность : 1 ч. 29 м.
Вид битрейта : Переменный
Битрейт : 21,6 Мбит/сек
Максимальный битрейт : 34,0 Мбит/сек
Ширина : 1920 пикселей
Высота : 1080 пикселей
Соотношение сторон : 16:9
Режим частоты кадров : Постоянный
Частота кадров : 23,976 кадра/сек
Стандарт вещания : NTSC
Цветовое пространство : YUV
Субдискретизация насыщенности : 4:2:0
Битовая глубина : 8 бит
Тип развёртки : Прогрессивная
Бит/(Пиксели*Кадры) : 0.434
Размер потока : 13,4 Гбайт (97%)
Default : Да
Forced : Нет
Основные цвета : BT.709
Характеристики трансфера : BT.709
Коэффициенты матрицы : BT.709

Аудио
Идентификатор : 2
Формат : AC-3
Формат/Информация : Audio Coding 3
Расширение режима : CM (complete main)
Параметр Endianness формата : Big
Идентификатор кодека : A_AC3
Продолжительность : 1 ч. 29 м.
Вид битрейта : Постоянный
Битрейт : 192 Кбит/сек
Каналы : 2 канала
Расположение каналов : Front: L R
Частота : 48,0 КГц
Битовая глубина : 16 бит
Метод сжатия : С потерями
Размер потока : 122 Мбайт (1%)
Язык : Russian
Default : Да
Forced : Нет

Скриншоты:


Релизы "Проблемный рейс" на NNM-Club.ru

Время раздачи: с 10:00 до 23:00 (мск)
[NNM-Club.ru]_Kurs na stolknovenie (2012) Blu-Ray Remux [1080p].mkv.torrent
 Торрент: Бронзовая раздача  Зарегистрирован
 
Зарегистрируйтесь и скачайте торрент!
69.4 KB

 Зарегистрирован:   15 Июл 2013 22:36:11
 Размер:   13.8 GB  (
 Рейтинг:   4.8 (Голосов: 25)
 Поблагодарили:   103
 Проверка:   Оформление проверено модератором 16 Июл 2013 12:16:42
Как cкачать  ·  Как раздать  ·  Правильно оформить  ·  Поднять ратио!  
Луць ®
Стаж: 11 лет 4 мес.
Сообщений: 880
Ratio: 649.72
Раздал: 52.25 TB
Поблагодарили: 47551
100%
Откуда: г.Луцк
ukraine.gif
Всем прятного просмотра!
Mousesports
Стаж: 12 лет 9 мес.
Сообщений: 1785
Ratio: 593.59
Поблагодарили: 34641
100%
Откуда: С берегов невы
russia.gif
Рейтинг ниже плинтуса.........................Луць, как филь?

_________________
....
Луць ®
Стаж: 11 лет 4 мес.
Сообщений: 880
Ratio: 649.72
Раздал: 52.25 TB
Поблагодарили: 47551
100%
Откуда: г.Луцк
ukraine.gif
Mousesports
Я ещо не смотрел :незнает:
Президент Гондураса
Стаж: 11 лет 4 мес.
Сообщений: 248
Ratio: 33K
100%
honduras.gif
Хороший ремукс, оригинала нет вообще, а русская дорога просто  )
Топик был перенесен из форума Зарубежные Фильмы (HD) в форум Архив Видео


batonchik
Показать сообщения:   
Начать новую тему   Ответить на тему    Торрент-трекер NNM-Club -> Архив торрентов -> Архив Видео. Кино, Театра Часовой пояс: GMT + 3
Страница 1 из 1