Классический форум-трекер
canvas not supported
Нас вместе: 4 172 638

John Lennon - Working Class Hero - The Definitive Lennon (2005) [FLAC|Lossless]<Rock>


 
 
RSS
Начать новую тему   Ответить на тему    Торрент-трекер NNM-Club -> Rock, Alternative, Punk, Metal -> Rock (Lossless)
Автор Сообщение
U2jp ®
Покровитель талантов
Стаж: 9 лет 8 мес.
Сообщений: 279
Ratio: 3.347
Поблагодарили: 2629
100%
pirates.png
John Lennon - Working Class Hero - The Definitive Lennon (2005)
Год: 2005
Жанр: Rock
Издатель (лейбл): Capitol Records
Страна: UK
Продолжительность: 02:31:15

Кодек: FLAC
Битрейт: Lossless
Продолжительность: 01:14:15
01. (Just Like) Starting Over
02. Imagine
03. Watching the Wheels
04. Jealous Guy
05. Instant Karma!
06. Stand by Me
07. Working Class Hero
08. Power to the People
09. Oh My Love
10. Oh Yoko!
11. Nobody Loves You (When You're Down And Out)
12. Nobody Told Me
13. Bless You
14. Come Together (Live)
15. New York City
16. I'm Stepping Out
17. You Are Here
18. Borrowed Time
19. Happy Xmas (War Is Over)
Продолжительность: 01:17:00
01. Woman
02. Mind Games
03. Out the Blue
04. Whatever Gets You thru the Night
05. Love
06. Mother
07. Beautiful Boy (Darling Boy)
08. Woman Is the Nigger of the World
09. God
10. Scared
11. #9 Dream
12. I'm Losing You
13. Isolation
14. Cold Turkey
15. Intuition
16. Gimme Some Truth
17. Give Peace a Chance
18. Real Love
19. Grow Old With Me
Код:

Отсутствует
Код:

-----------------------

DON'T MODIFY THIS FILE

-----------------------

PERFORMER: auCDtect Task Manager, ver. 1.6.0 RC1 build 1.6.0.1
Copyright (c) 2008-2010 y-soft. All rights reserved
http://y-soft.org

ANALYZER: auCDtect: CD records authenticity detector, version 0.8.2
Copyright (c) 2004 Oleg Berngardt. All rights reserved.
Copyright (c) 2004 Alexander Djourik. All rights reserved.

FILE: 19 John Lennon - Happy Xmas (War Is Over).flac
  Size: 25594476 Hash: B54A981AF810CF7524AE6108D2301C6D Accuracy: -m0
  Conclusion: CDDA 100%
  Signature: C515B35F084C7808B87F8A4987C17BDF9319A80D
FILE: 18 John Lennon - Borrowed Time.flac
  Size: 30813274 Hash: F7E776EDBB33D1AD194424E9AAB027EF Accuracy: -m0
  Conclusion: CDDA 100%
  Signature: 7842C6A571AD2D18734E8EEDD6DE389CC00A919E
FILE: 17 John Lennon - You Are Here.flac
  Size: 25287358 Hash: 8CCC75C5F7F87A868825C4F67FCB81DE Accuracy: -m0
  Conclusion: CDDA 100%
  Signature: 18240370C142ECA9FC14E894E61C8C307AAD1335
FILE: 16 John Lennon - I'm Stepping Out.flac
  Size: 27330681 Hash: 8EC205BE7448DF5E2E05EF807DD7FAF7 Accuracy: -m0
  Conclusion: CDDA 99%
  Signature: 6203CED78B1BC1F311735ADEEE15754A48E4E33C
FILE: 15 John Lennon - New York City.flac
  Size: 33365245 Hash: FC5D123E3A4A5C6788FB714B0A72CFF9 Accuracy: -m0
  Conclusion: CDDA 100%
  Signature: 914A3A11DE56A27F9DF4B0DE71C51018438800CC
FILE: 14 John Lennon - Come Together (Live).flac
  Size: 29115193 Hash: 83A4043E9366385E42B81C54D562DEB4 Accuracy: -m0
  Conclusion: CDDA 100%
  Signature: E5E83A8C368703375925C1A37704C292B1FEB4A3
FILE: 13 John Lennon - Bless You.flac
  Size: 27949459 Hash: 8EA03E8E3F7D222C8301256B4397A5D7 Accuracy: -m0
  Conclusion: CDDA 99%
  Signature: 2C6321F13940F0351FB3203FDEBDBAD8B30ABFED
FILE: 12 John Lennon - Nobody Told Me.flac
  Size: 24852759 Hash: 127881DFAB6B58A01E40729D3842E5C8 Accuracy: -m0
  Conclusion: CDDA 99%
  Signature: 4074D42E974691D2AF661F4637B7CBCA061328D6
FILE: 11 John Lennon - Nobody Loves You (When Your're Down And Out).flac
  Size: 33841907 Hash: 55550B63F299B58A50A60090AB861F87 Accuracy: -m0
  Conclusion: CDDA 100%
  Signature: 1C99B7EA2243CB52441B395332BA7939CA9E660F
FILE: 10 John Lennon - Oh Yoko!.flac
  Size: 29243886 Hash: CDF614138C533688D5625DA1620D18B3 Accuracy: -m0
  Conclusion: CDDA 100%
  Signature: C6CA909D4F157F38ACA99F383D7298159646178E
FILE: 09 John Lennon - Oh My Love.flac
  Size: 11831252 Hash: 103AB6878A85464AD6906A719B8F1341 Accuracy: -m0
  Conclusion: MPEG 100%
  Signature: B1FF51254F09BF07231EB8C139A98B71DA142A78
FILE: 08 John Lennon - Power To The People.flac
  Size: 22424170 Hash: 7B16558C9335A007B41DD4B7AB7E502A Accuracy: -m0
  Conclusion: CDDA 100%
  Signature: 3010C23A482136FD95EC082CE02EAA4109BF8D8A
FILE: 07 John Lennon - Working Class Hero.flac
  Size: 18522876 Hash: 26E3A83514B0C27BF21B1C67BF2D07D6 Accuracy: -m0
  Conclusion: CDDA 100%
  Signature: ECDEEFE0CB7DCAEFBB544ABAFCDD837079922C7C
FILE: 06 John Lennon - Stand By Me.flac
  Size: 23494050 Hash: 212E6C0BA8F580BB3BE7A11557FEB82A Accuracy: -m0
  Conclusion: CDDA 100%
  Signature: 532C815CAEC081F15E0C403F77C697270EBFE78F
FILE: 05 John Lennon - Instant Karma! (We All Shine On).flac
  Size: 21316715 Hash: AF157247BFD5F1AC6428579F66B38FBF Accuracy: -m0
  Conclusion: CDDA 100%
  Signature: 04A8CB88AAA95B8E2287ED5DDF742C860D378828
FILE: 04 John Lennon - Jealous Guy.flac
  Size: 23309410 Hash: 5E49A03AADA206EA42F3766647DE5C9C Accuracy: -m0
  Conclusion: CDDA 99%
  Signature: 0556B8B65C0B3988730831EE978679D56A147577
FILE: 03 John Lennon - Watching The Wheels.flac
  Size: 23475949 Hash: 06553402C5917D5B44242CA51A510D4C Accuracy: -m0
  Conclusion: CDDA 100%
  Signature: 35AD3169B207237EA51E9838DC9E2ED2EA3F0A12
FILE: 02 John Lennon - Imagine.flac
  Size: 15922217 Hash: 1B021617B6D30AD3271F3FC8EE13639F Accuracy: -m0
  Conclusion: CDDA 94%
  Signature: 9A77BC6B0C2D54E59A645A968A25CEBE5275FB65
FILE: 01 John Lennon - (Just Like) Starting Over.flac
  Size: 25597360 Hash: 095FB2D7F8416777C4F3747310835858 Accuracy: -m0
  Conclusion: CDDA 100%
  Signature: 9C52D8C9CCC197A03DEF4CD3525A0E2679854D7C
Код:
-----------------------

DON'T MODIFY THIS FILE

-----------------------

PERFORMER: auCDtect Task Manager, ver. 1.6.0 RC1 build 1.6.0.1
Copyright (c) 2008-2010 y-soft. All rights reserved
http://y-soft.org

ANALYZER: auCDtect: CD records authenticity detector, version 0.8.2
Copyright (c) 2004 Oleg Berngardt. All rights reserved.
Copyright (c) 2004 Alexander Djourik. All rights reserved.

FILE: 19 John Lennon - Grow Old With Me.flac
  Size: 17643471 Hash: 7A88920B770C6D2FA164CD64ED5AD2B7 Accuracy: -m0
  Conclusion: CDDA 99%
  Signature: 30E5C75F24175DD8A547DB4F45C65799EABFCDD2
FILE: 18 John Lennon - Real Love.flac
  Size: 18767169 Hash: 8C3EB44B8BBA16948458B98D4F09CA36 Accuracy: -m0
  Conclusion: CDDA 100%
  Signature: 5899DB1B3227DDDDE06F15446FD8687CAB72C4A1
FILE: 17 John Lennon - Give Peace A Chance.flac
  Size: 34914041 Hash: 1E8AE508EB0FE6E5D4E29E2DAEC1C9FB Accuracy: -m0
  Conclusion: CDDA 100%
  Signature: 6B3B6077441C39155F814BC27C959B3987025C32
FILE: 16 John Lennon - Gimme Some Truth.flac
  Size: 21798729 Hash: 6D4ADB07FA4297D9FE01DFCB6AD930C5 Accuracy: -m0
  Conclusion: CDDA 99%
  Signature: A49F83BEFF50BAA700947E96637A9800E587456B
FILE: 15 John Lennon - Intuition.flac
  Size: 20818536 Hash: 7F2598EF2172CA00A22557A32ADF5A94 Accuracy: -m0
  Conclusion: CDDA 99%
  Signature: FC62959EC9510E819EDDB39A9DD932373F3260EE
FILE: 14 John Lennon - Cold Turkey.flac
  Size: 29129204 Hash: 4ECE85C808AF3E79934353B0BC418EA7 Accuracy: -m0
  Conclusion: CDDA 99%
  Signature: 5E0C0176638897134CE8349BEFBD7AD319CD9FB5
FILE: 13 John Lennon - Isolation.flac
  Size: 14425012 Hash: F1682E685F1BCAB00F50D7846594C7E9 Accuracy: -m0
  Conclusion: CDDA 92%
  Signature: BC6C838F424CC29AD307C24D4D6F942FF48049E6
FILE: 12 John Lennon - I'm Losing You.flac
  Size: 27097994 Hash: C3CBA8A81A1CE919ECF480B54315BA12 Accuracy: -m0
  Conclusion: CDDA 100%
  Signature: BCAC94F1DFCFE27B13F9DCEA4AE938CFAA759EA2
FILE: 11 John Lennon - #9 Dream.flac
  Size: 31482706 Hash: C37E264FDE9C7FF5C7263BBBE2C9DC10 Accuracy: -m0
  Conclusion: CDDA 100%
  Signature: 39DF4EB391267019412585B2139CD72C90F782DB
FILE: 10 John Lennon - Scared.flac
  Size: 29442235 Hash: C07EE23B51401F0FAD7BF25CF1883589 Accuracy: -m0
  Conclusion: CDDA 99%
  Signature: 879CC9CF4DAFF0147E9D910D21F2581AA360ABCF
FILE: 09 John Lennon - God.flac
  Size: 22605429 Hash: 3FFF95C259A7D0CAC7137959084C4A32 Accuracy: -m0
  Conclusion: CDDA 100%
  Signature: FBDF13CF6A80F224E02DA62E1941974727B14093
FILE: 08 John Lennon - Woman is The Nigger of The World.flac
  Size: 38510728 Hash: EDBFEEAF63E0E12CEF6C9ED616C89E40 Accuracy: -m0
  Conclusion: CDDA 100%
  Signature: E779B4750F96ED16024E4AFE610FA1FB1877D999
FILE: 07 John Lennon - Beautiful Boy (Darling Boy).flac
  Size: 23896189 Hash: A85EEA56682A6C5F3082474EA20BC74C Accuracy: -m0
  Conclusion: CDDA 99%
  Signature: 986990C3CA59775E65077A39AFC2B4112D5C3231
FILE: 06 John Lennon - Mother.flac
  Size: 28439677 Hash: 7F950264D681974155745FA351096ECC Accuracy: -m0
  Conclusion: CDDA 100%
  Signature: 378C801F597295B0D159CD8173EAAA4236657C71
FILE: 05 John Lennon - Love.flac
  Size: 12277124 Hash: 20B2F9723BE9DA0514CEA5EB77C3ABD5 Accuracy: -m0
  Conclusion: CDDA 87%
  Signature: 213E8C6BBEADF5EA498407F13D83073A68BEAE97
FILE: 04 John Lennon - Whatever Gets You Thru The Night.flac
  Size: 23044116 Hash: 46BFC8392B5AB9F3E1ED66877A6CBC6E Accuracy: -m0
  Conclusion: CDDA 100%
  Signature: 3FA351F1FFDBD011494A6ADC5EED645DF385A672
FILE: 03 John Lennon - Out The Blue.flac
  Size: 21504712 Hash: F3B48367904C9B981C2F3FA4E32CCC59 Accuracy: -m0
  Conclusion: CDDA 100%
  Signature: 7B5DFE82701E4EDE0E9614B53A3146A55D589697
FILE: 02 John Lennon - Mind Games.flac
  Size: 29245653 Hash: CF2F48B74955AA52DC999BA872CAB7C0 Accuracy: -m0
  Conclusion: CDDA 100%
  Signature: C8CA62238F20D9E9C47FCA6D5BBF514410E498DB
FILE: 01 John Lennon - Woman.flac
  Size: 23144907 Hash: ACED502200E9516F2B2B4EBEF6578FB7 Accuracy: -m0
  Conclusion: CDDA 100%
  Signature: 9586B5104B031042B8FC1B54FCFE4A8677945783
Код:
General
Complete name                            : /Users/user/Music/John Lennon/John Lennon - 2005 - Working Class Hero - The Definitive Lennon FLAC/back.jpg
Format                                   : JPEG
File size                                : 1.07 MiB

Image
Format                                   : JPEG
Width                                    : 1 768 pixels
Height                                   : 1 379 pixels
Color space                              : YUV
Chroma subsampling                       : 4:2:0
Bit depth                                : 8 bits
Compression mode                         : Lossy
Stream size                              : 1.07 MiB (100%)

General
Complete name                            : /Users/user/Music/John Lennon/John Lennon - 2005 - Working Class Hero - The Definitive Lennon FLAC/Disc 1/01 John Lennon - (Just Like) Starting Over.flac
Format                                   : FLAC
Format/Info                              : Free Lossless Audio Codec
File size                                : 24.4 MiB
Duration                                 : 3mn 57s
Overall bit rate mode                    : Variable
Overall bit rate                         : 863 Kbps
Album                                    : Working Class Hero - The Definitive Lennon (Disc 1)
Album/Performer                          : John Lennon / John Lennon
Track name                               : (Just Like) Starting Over
Track name/Position                      : 1
Performer                                : John Lennon
Genre                                    : Rock
Recorded date                            : 2005
Writing application                      : MediaMonkey 3.1.0

Audio
Format                                   : FLAC
Format/Info                              : Free Lossless Audio Codec
Duration                                 : 3mn 57s
Bit rate mode                            : Variable
Bit rate                                 : 863 Kbps
Channel(s)                               : 2 channels
Sampling rate                            : 44.1 KHz
Bit depth                                : 16 bits
Stream size                              : 24.4 MiB (100%)
Writing library                          : libFLAC 1.2.1 (UTC 2007-09-17)

General
Complete name                            : /Users/user/Music/John Lennon/John Lennon - 2005 - Working Class Hero - The Definitive Lennon FLAC/Disc 1/02 John Lennon - Imagine.flac
Format                                   : FLAC
Format/Info                              : Free Lossless Audio Codec
File size                                : 15.2 MiB
Duration                                 : 3mn 2s
Overall bit rate mode                    : Variable
Overall bit rate                         : 697 Kbps
Album                                    : Working Class Hero - The Definitive Lennon (Disc 1)
Album/Performer                          : John Lennon / John Lennon
Track name                               : Imagine
Track name/Position                      : 2
Performer                                : John Lennon
Genre                                    : Rock
Recorded date                            : 2005
Writing application                      : MediaMonkey 3.1.0

Audio
Format                                   : FLAC
Format/Info                              : Free Lossless Audio Codec
Duration                                 : 3mn 2s
Bit rate mode                            : Variable
Bit rate                                 : 697 Kbps
Channel(s)                               : 2 channels
Sampling rate                            : 44.1 KHz
Bit depth                                : 16 bits
Stream size                              : 15.2 MiB (100%)
Writing library                          : libFLAC 1.2.1 (UTC 2007-09-17)

General
Complete name                            : /Users/user/Music/John Lennon/John Lennon - 2005 - Working Class Hero - The Definitive Lennon FLAC/Disc 1/03 John Lennon - Watching The Wheels.flac
Format                                   : FLAC
Format/Info                              : Free Lossless Audio Codec
File size                                : 22.4 MiB
Duration                                 : 3mn 31s
Overall bit rate mode                    : Variable
Overall bit rate                         : 889 Kbps
Album                                    : Working Class Hero - The Definitive Lennon (Disc 1)
Album/Performer                          : John Lennon / John Lennon
Track name                               : Watching The Wheels
Track name/Position                      : 3
Performer                                : John Lennon
Genre                                    : Rock
Recorded date                            : 2005
Writing application                      : MediaMonkey 3.1.0

Audio
Format                                   : FLAC
Format/Info                              : Free Lossless Audio Codec
Duration                                 : 3mn 31s
Bit rate mode                            : Variable
Bit rate                                 : 889 Kbps
Channel(s)                               : 2 channels
Sampling rate                            : 44.1 KHz
Bit depth                                : 16 bits
Stream size                              : 22.4 MiB (100%)
Writing library                          : libFLAC 1.2.1 (UTC 2007-09-17)

General
Complete name                            : /Users/user/Music/John Lennon/John Lennon - 2005 - Working Class Hero - The Definitive Lennon FLAC/Disc 1/04 John Lennon - Jealous Guy.flac
Format                                   : FLAC
Format/Info                              : Free Lossless Audio Codec
File size                                : 22.2 MiB
Duration                                 : 4mn 13s
Overall bit rate mode                    : Variable
Overall bit rate                         : 735 Kbps
Album                                    : Working Class Hero - The Definitive Lennon (Disc 1)
Album/Performer                          : John Lennon / John Lennon
Track name                               : Jealous Guy
Track name/Position                      : 4
Performer                                : John Lennon
Genre                                    : Rock
Recorded date                            : 2005
Writing application                      : MediaMonkey 3.1.0

Audio
Format                                   : FLAC
Format/Info                              : Free Lossless Audio Codec
Duration                                 : 4mn 13s
Bit rate mode                            : Variable
Bit rate                                 : 735 Kbps
Channel(s)                               : 2 channels
Sampling rate                            : 44.1 KHz
Bit depth                                : 16 bits
Stream size                              : 22.2 MiB (100%)
Writing library                          : libFLAC 1.2.1 (UTC 2007-09-17)

General
Complete name                            : /Users/user/Music/John Lennon/John Lennon - 2005 - Working Class Hero - The Definitive Lennon FLAC/Disc 1/05 John Lennon - Instant Karma! (We All Shine On).flac
Format                                   : FLAC
Format/Info                              : Free Lossless Audio Codec
File size                                : 20.3 MiB
Duration                                 : 3mn 21s
Overall bit rate mode                    : Variable
Overall bit rate                         : 847 Kbps
Album                                    : Working Class Hero - The Definitive Lennon (Disc 1)
Album/Performer                          : John Lennon / John Lennon
Track name                               : Instant Karma! (We All Shine On)
Track name/Position                      : 5
Performer                                : John Lennon
Genre                                    : Rock
Recorded date                            : 2005
Writing application                      : MediaMonkey 3.1.0

Audio
Format                                   : FLAC
Format/Info                              : Free Lossless Audio Codec
Duration                                 : 3mn 21s
Bit rate mode                            : Variable
Bit rate                                 : 847 Kbps
Channel(s)                               : 2 channels
Sampling rate                            : 44.1 KHz
Bit depth                                : 16 bits
Stream size                              : 20.3 MiB (100%)
Writing library                          : libFLAC 1.2.1 (UTC 2007-09-17)

General
Complete name                            : /Users/user/Music/John Lennon/John Lennon - 2005 - Working Class Hero - The Definitive Lennon FLAC/Disc 1/06 John Lennon - Stand By Me.flac
Format                                   : FLAC
Format/Info                              : Free Lossless Audio Codec
File size                                : 22.4 MiB
Duration                                 : 3mn 26s
Overall bit rate mode                    : Variable
Overall bit rate                         : 910 Kbps
Album                                    : Working Class Hero - The Definitive Lennon (Disc 1)
Album/Performer                          : John Lennon / John Lennon
Track name                               : Stand By Me
Track name/Position                      : 6
Performer                                : John Lennon
Genre                                    : Rock
Recorded date                            : 2005
Writing application                      : MediaMonkey 3.1.0

Audio
Format                                   : FLAC
Format/Info                              : Free Lossless Audio Codec
Duration                                 : 3mn 26s
Bit rate mode                            : Variable
Bit rate                                 : 909 Kbps
Channel(s)                               : 2 channels
Sampling rate                            : 44.1 KHz
Bit depth                                : 16 bits
Stream size                              : 22.4 MiB (100%)
Writing library                          : libFLAC 1.2.1 (UTC 2007-09-17)

General
Complete name                            : /Users/user/Music/John Lennon/John Lennon - 2005 - Working Class Hero - The Definitive Lennon FLAC/Disc 1/07 John Lennon - Working Class Hero.flac
Format                                   : FLAC
Format/Info                              : Free Lossless Audio Codec
File size                                : 17.7 MiB
Duration                                 : 3mn 48s
Overall bit rate mode                    : Variable
Overall bit rate                         : 648 Kbps
Album                                    : Working Class Hero - The Definitive Lennon (Disc 1)
Album/Performer                          : John Lennon / John Lennon
Track name                               : Working Class Hero
Track name/Position                      : 7
Performer                                : John Lennon
Genre                                    : Rock
Recorded date                            : 2005
Writing application                      : MediaMonkey 3.1.0

Audio
Format                                   : FLAC
Format/Info                              : Free Lossless Audio Codec
Duration                                 : 3mn 48s
Bit rate mode                            : Variable
Bit rate                                 : 648 Kbps
Channel(s)                               : 2 channels
Sampling rate                            : 44.1 KHz
Bit depth                                : 16 bits
Stream size                              : 17.7 MiB (100%)
Writing library                          : libFLAC 1.2.1 (UTC 2007-09-17)

General
Complete name                            : /Users/user/Music/John Lennon/John Lennon - 2005 - Working Class Hero - The Definitive Lennon FLAC/Disc 1/08 John Lennon - Power To The People.flac
Format                                   : FLAC
Format/Info                              : Free Lossless Audio Codec
File size                                : 21.4 MiB
Duration                                 : 3mn 22s
Overall bit rate mode                    : Variable
Overall bit rate                         : 886 Kbps
Album                                    : Working Class Hero - The Definitive Lennon (Disc 1)
Album/Performer                          : John Lennon / John Lennon
Track name                               : Power To The People
Track name/Position                      : 8
Performer                                : John Lennon
Genre                                    : Rock
Recorded date                            : 2005
Writing application                      : MediaMonkey 3.1.0

Audio
Format                                   : FLAC
Format/Info                              : Free Lossless Audio Codec
Duration                                 : 3mn 22s
Bit rate mode                            : Variable
Bit rate                                 : 886 Kbps
Channel(s)                               : 2 channels
Sampling rate                            : 44.1 KHz
Bit depth                                : 16 bits
Stream size                              : 21.4 MiB (100%)
Writing library                          : libFLAC 1.2.1 (UTC 2007-09-17)

General
Complete name                            : /Users/user/Music/John Lennon/John Lennon - 2005 - Working Class Hero - The Definitive Lennon FLAC/Disc 1/09 John Lennon - Oh My Love.flac
Format                                   : FLAC
Format/Info                              : Free Lossless Audio Codec
File size                                : 11.3 MiB
Duration                                 : 2mn 44s
Overall bit rate mode                    : Variable
Overall bit rate                         : 575 Kbps
Album                                    : Working Class Hero - The Definitive Lennon (Disc 1)
Album/Performer                          : John Lennon / John Lennon
Track name                               : Oh My Love
Track name/Position                      : 9
Performer                                : John Lennon
Genre                                    : Rock
Recorded date                            : 2005
Writing application                      : MediaMonkey 3.1.0

Audio
Format                                   : FLAC
Format/Info                              : Free Lossless Audio Codec
Duration                                 : 2mn 44s
Bit rate mode                            : Variable
Bit rate                                 : 575 Kbps
Channel(s)                               : 2 channels
Sampling rate                            : 44.1 KHz
Bit depth                                : 16 bits
Stream size                              : 11.3 MiB (100%)
Writing library                          : libFLAC 1.2.1 (UTC 2007-09-17)

General
Complete name                            : /Users/user/Music/John Lennon/John Lennon - 2005 - Working Class Hero - The Definitive Lennon FLAC/Disc 1/09 John Lennon - Oh My Love.flac.Spectrogram.png
Format                                   : PNG
Format/Info                              : Portable Network Graphic
File size                                : 80.6 KiB

Image
Format                                   : PNG
Format/Info                              : Portable Network Graphic
Width                                    : 544 pixels
Height                                   : 357 pixels
Bit depth                                : 8 bits
Compression mode                         : Lossless
Stream size                              : 80.6 KiB (100%)

General
Complete name                            : /Users/user/Music/John Lennon/John Lennon - 2005 - Working Class Hero - The Definitive Lennon FLAC/Disc 1/10 John Lennon - Oh Yoko!.flac
Format                                   : FLAC
Format/Info                              : Free Lossless Audio Codec
File size                                : 27.9 MiB
Duration                                 : 4mn 17s
Overall bit rate mode                    : Variable
Overall bit rate                         : 908 Kbps
Album                                    : Working Class Hero - The Definitive Lennon (Disc 1)
Album/Performer                          : John Lennon / John Lennon
Track name                               : Oh Yoko!
Track name/Position                      : 10
Performer                                : John Lennon
Genre                                    : Rock
Recorded date                            : 2005
Writing application                      : MediaMonkey 3.1.0

Audio
Format                                   : FLAC
Format/Info                              : Free Lossless Audio Codec
Duration                                 : 4mn 17s
Bit rate mode                            : Variable
Bit rate                                 : 907 Kbps
Channel(s)                               : 2 channels
Sampling rate                            : 44.1 KHz
Bit depth                                : 16 bits
Stream size                              : 27.9 MiB (100%)
Writing library                          : libFLAC 1.2.1 (UTC 2007-09-17)

General
Complete name                            : /Users/user/Music/John Lennon/John Lennon - 2005 - Working Class Hero - The Definitive Lennon FLAC/Disc 1/11 John Lennon - Nobody Loves You (When Your're Down And Out).flac
Format                                   : FLAC
Format/Info                              : Free Lossless Audio Codec
File size                                : 32.3 MiB
Duration                                 : 5mn 7s
Overall bit rate mode                    : Variable
Overall bit rate                         : 879 Kbps
Album                                    : Working Class Hero - The Definitive Lennon (Disc 1)
Album/Performer                          : John Lennon / John Lennon
Track name                               : Nobody Loves You (When Your're Down And Out)
Track name/Position                      : 11
Performer                                : John Lennon
Genre                                    : Rock
Recorded date                            : 2005
Writing application                      : MediaMonkey 3.1.0

Audio
Format                                   : FLAC
Format/Info                              : Free Lossless Audio Codec
Duration                                 : 5mn 7s
Bit rate mode                            : Variable
Bit rate                                 : 879 Kbps
Channel(s)                               : 2 channels
Sampling rate                            : 44.1 KHz
Bit depth                                : 16 bits
Stream size                              : 32.3 MiB (100%)
Writing library                          : libFLAC 1.2.1 (UTC 2007-09-17)

General
Complete name                            : /Users/user/Music/John Lennon/John Lennon - 2005 - Working Class Hero - The Definitive Lennon FLAC/Disc 1/12 John Lennon - Nobody Told Me.flac
Format                                   : FLAC
Format/Info                              : Free Lossless Audio Codec
File size                                : 23.7 MiB
Duration                                 : 3mn 34s
Overall bit rate mode                    : Variable
Overall bit rate                         : 927 Kbps
Album                                    : Working Class Hero - The Definitive Lennon (Disc 1)
Album/Performer                          : John Lennon / John Lennon
Track name                               : Nobody Told Me
Track name/Position                      : 12
Performer                                : John Lennon
Genre                                    : Rock
Recorded date                            : 2005
Writing application                      : MediaMonkey 3.1.0

Audio
Format                                   : FLAC
Format/Info                              : Free Lossless Audio Codec
Duration                                 : 3mn 34s
Bit rate mode                            : Variable
Bit rate                                 : 927 Kbps
Channel(s)                               : 2 channels
Sampling rate                            : 44.1 KHz
Bit depth                                : 16 bits
Stream size                              : 23.7 MiB (100%)
Writing library                          : libFLAC 1.2.1 (UTC 2007-09-17)

General
Complete name                            : /Users/user/Music/John Lennon/John Lennon - 2005 - Working Class Hero - The Definitive Lennon FLAC/Disc 1/13 John Lennon - Bless You.flac
Format                                   : FLAC
Format/Info                              : Free Lossless Audio Codec
File size                                : 26.7 MiB
Duration                                 : 4mn 38s
Overall bit rate mode                    : Variable
Overall bit rate                         : 804 Kbps
Album                                    : Working Class Hero - The Definitive Lennon (Disc 1)
Album/Performer                          : John Lennon / John Lennon
Track name                               : Bless You
Track name/Position                      : 13
Performer                                : John Lennon
Genre                                    : Rock
Recorded date                            : 2005
Writing application                      : MediaMonkey 3.1.0

Audio
Format                                   : FLAC
Format/Info                              : Free Lossless Audio Codec
Duration                                 : 4mn 38s
Bit rate mode                            : Variable
Bit rate                                 : 804 Kbps
Channel(s)                               : 2 channels
Sampling rate                            : 44.1 KHz
Bit depth                                : 16 bits
Stream size                              : 26.7 MiB (100%)
Writing library                          : libFLAC 1.2.1 (UTC 2007-09-17)

General
Complete name                            : /Users/user/Music/John Lennon/John Lennon - 2005 - Working Class Hero - The Definitive Lennon FLAC/Disc 1/14 John Lennon - Come Together (Live).flac
Format                                   : FLAC
Format/Info                              : Free Lossless Audio Codec
File size                                : 27.8 MiB
Duration                                 : 4mn 23s
Overall bit rate mode                    : Variable
Overall bit rate                         : 883 Kbps
Album                                    : Working Class Hero - The Definitive Lennon (Disc 1)
Album/Performer                          : John Lennon / John Lennon
Track name                               : Come Together (Live)
Track name/Position                      : 14
Performer                                : John Lennon
Genre                                    : Rock
Recorded date                            : 2005
Writing application                      : MediaMonkey 3.1.0

Audio
Format                                   : FLAC
Format/Info                              : Free Lossless Audio Codec
Duration                                 : 4mn 23s
Bit rate mode                            : Variable
Bit rate                                 : 883 Kbps
Channel(s)                               : 2 channels
Sampling rate                            : 44.1 KHz
Bit depth                                : 16 bits
Stream size                              : 27.8 MiB (100%)
Writing library                          : libFLAC 1.2.1 (UTC 2007-09-17)

General
Complete name                            : /Users/user/Music/John Lennon/John Lennon - 2005 - Working Class Hero - The Definitive Lennon FLAC/Disc 1/15 John Lennon - New York City.flac
Format                                   : FLAC
Format/Info                              : Free Lossless Audio Codec
File size                                : 31.8 MiB
Duration                                 : 4mn 31s
Overall bit rate mode                    : Variable
Overall bit rate                         : 984 Kbps
Album                                    : Working Class Hero - The Definitive Lennon (Disc 1)
Album/Performer                          : John Lennon / John Lennon
Track name                               : New York City
Track name/Position                      : 15
Performer                                : John Lennon
Genre                                    : Rock
Recorded date                            : 2005
Writing application                      : MediaMonkey 3.1.0

Audio
Format                                   : FLAC
Format/Info                              : Free Lossless Audio Codec
Duration                                 : 4mn 31s
Bit rate mode                            : Variable
Bit rate                                 : 983 Kbps
Channel(s)                               : 2 channels
Sampling rate                            : 44.1 KHz
Bit depth                                : 16 bits
Stream size                              : 31.8 MiB (100%)
Writing library                          : libFLAC 1.2.1 (UTC 2007-09-17)

General
Complete name                            : /Users/user/Music/John Lennon/John Lennon - 2005 - Working Class Hero - The Definitive Lennon FLAC/Disc 1/16 John Lennon - I'm Stepping Out.flac
Format                                   : FLAC
Format/Info                              : Free Lossless Audio Codec
File size                                : 26.1 MiB
Duration                                 : 4mn 6s
Overall bit rate mode                    : Variable
Overall bit rate                         : 887 Kbps
Album                                    : Working Class Hero - The Definitive Lennon (Disc 1)
Album/Performer                          : John Lennon / John Lennon
Track name                               : I'm Stepping Out
Track name/Position                      : 16
Performer                                : John Lennon
Genre                                    : Rock
Recorded date                            : 2005
Writing application                      : MediaMonkey 3.1.0

Audio
Format                                   : FLAC
Format/Info                              : Free Lossless Audio Codec
Duration                                 : 4mn 6s
Bit rate mode                            : Variable
Bit rate                                 : 887 Kbps
Channel(s)                               : 2 channels
Sampling rate                            : 44.1 KHz
Bit depth                                : 16 bits
Stream size                              : 26.1 MiB (100%)
Writing library                          : libFLAC 1.2.1 (UTC 2007-09-17)

General
Complete name                            : /Users/user/Music/John Lennon/John Lennon - 2005 - Working Class Hero - The Definitive Lennon FLAC/Disc 1/17 John Lennon - You Are Here.flac
Format                                   : FLAC
Format/Info                              : Free Lossless Audio Codec
File size                                : 24.1 MiB
Duration                                 : 4mn 8s
Overall bit rate mode                    : Variable
Overall bit rate                         : 814 Kbps
Album                                    : Working Class Hero - The Definitive Lennon (Disc 1)
Album/Performer                          : John Lennon / John Lennon
Track name                               : You Are Here
Track name/Position                      : 17
Performer                                : John Lennon
Genre                                    : Rock
Recorded date                            : 2005
Writing application                      : MediaMonkey 3.1.0

Audio
Format                                   : FLAC
Format/Info                              : Free Lossless Audio Codec
Duration                                 : 4mn 8s
Bit rate mode                            : Variable
Bit rate                                 : 814 Kbps
Channel(s)                               : 2 channels
Sampling rate                            : 44.1 KHz
Bit depth                                : 16 bits
Stream size                              : 24.1 MiB (100%)
Writing library                          : libFLAC 1.2.1 (UTC 2007-09-17)

General
Complete name                            : /Users/user/Music/John Lennon/John Lennon - 2005 - Working Class Hero - The Definitive Lennon FLAC/Disc 1/18 John Lennon - Borrowed Time.flac
Format                                   : FLAC
Format/Info                              : Free Lossless Audio Codec
File size                                : 29.4 MiB
Duration                                 : 4mn 30s
Overall bit rate mode                    : Variable
Overall bit rate                         : 913 Kbps
Album                                    : Working Class Hero - The Definitive Lennon (Disc 1)
Album/Performer                          : John Lennon / John Lennon
Track name                               : Borrowed Time
Track name/Position                      : 18
Performer                                : John Lennon
Genre                                    : Rock
Recorded date                            : 2005
Writing application                      : MediaMonkey 3.1.0

Audio
Format                                   : FLAC
Format/Info                              : Free Lossless Audio Codec
Duration                                 : 4mn 30s
Bit rate mode                            : Variable
Bit rate                                 : 913 Kbps
Channel(s)                               : 2 channels
Sampling rate                            : 44.1 KHz
Bit depth                                : 16 bits
Stream size                              : 29.4 MiB (100%)
Writing library                          : libFLAC 1.2.1 (UTC 2007-09-17)

General
Complete name                            : /Users/user/Music/John Lennon/John Lennon - 2005 - Working Class Hero - The Definitive Lennon FLAC/Disc 1/19 John Lennon - Happy Xmas (War Is Over).flac
Format                                   : FLAC
Format/Info                              : Free Lossless Audio Codec
File size                                : 24.4 MiB
Duration                                 : 3mn 37s
Overall bit rate mode                    : Variable
Overall bit rate                         : 940 Kbps
Album                                    : Working Class Hero - The Definitive Lennon (Disc 1)
Album/Performer                          : John Lennon / John Lennon
Track name                               : Happy Xmas (War Is Over)
Track name/Position                      : 19
Performer                                : John Lennon
Genre                                    : Rock
Recorded date                            : 2005
Writing application                      : MediaMonkey 3.1.0

Audio
Format                                   : FLAC
Format/Info                              : Free Lossless Audio Codec
Duration                                 : 3mn 37s
Bit rate mode                            : Variable
Bit rate                                 : 940 Kbps
Channel(s)                               : 2 channels
Sampling rate                            : 44.1 KHz
Bit depth                                : 16 bits
Stream size                              : 24.4 MiB (100%)
Writing library                          : libFLAC 1.2.1 (UTC 2007-09-17)

General
Complete name                            : /Users/user/Music/John Lennon/John Lennon - 2005 - Working Class Hero - The Definitive Lennon FLAC/Disc 1/Folder.auCDtect.txt
File size                                : 8.14 KiB

General
Complete name                            : /Users/user/Music/John Lennon/John Lennon - 2005 - Working Class Hero - The Definitive Lennon FLAC/Disc2/01 John Lennon - Woman.flac
Format                                   : FLAC
Format/Info                              : Free Lossless Audio Codec
File size                                : 22.1 MiB
Duration                                 : 3mn 33s
Overall bit rate mode                    : Variable
Overall bit rate                         : 868 Kbps
Album                                    : The Definitive Lennon (Disc2)
Album/Performer                          : John Lennon / John Lennon
Track name                               : Woman
Track name/Position                      : 1
Performer                                : John Lennon
Genre                                    : Rock
Recorded date                            : 2005
Writing application                      : MediaMonkey 3.1.0

Audio
Format                                   : FLAC
Format/Info                              : Free Lossless Audio Codec
Duration                                 : 3mn 33s
Bit rate mode                            : Variable
Bit rate                                 : 867 Kbps
Channel(s)                               : 2 channels
Sampling rate                            : 44.1 KHz
Bit depth                                : 16 bits
Stream size                              : 22.1 MiB (100%)
Writing library                          : libFLAC 1.2.1 (UTC 2007-09-17)

General
Complete name                            : /Users/user/Music/John Lennon/John Lennon - 2005 - Working Class Hero - The Definitive Lennon FLAC/Disc2/02 John Lennon - Mind Games.flac
Format                                   : FLAC
Format/Info                              : Free Lossless Audio Codec
File size                                : 27.9 MiB
Duration                                 : 4mn 12s
Overall bit rate mode                    : Variable
Overall bit rate                         : 928 Kbps
Album                                    : The Definitive Lennon (Disc2)
Album/Performer                          : John Lennon / John Lennon
Track name                               : Mind Games
Track name/Position                      : 2
Performer                                : John Lennon
Genre                                    : Rock
Recorded date                            : 2005
Writing application                      : MediaMonkey 3.1.0

Audio
Format                                   : FLAC
Format/Info                              : Free Lossless Audio Codec
Duration                                 : 4mn 12s
Bit rate mode                            : Variable
Bit rate                                 : 928 Kbps
Channel(s)                               : 2 channels
Sampling rate                            : 44.1 KHz
Bit depth                                : 16 bits
Stream size                              : 27.9 MiB (100%)
Writing library                          : libFLAC 1.2.1 (UTC 2007-09-17)

General
Complete name                            : /Users/user/Music/John Lennon/John Lennon - 2005 - Working Class Hero - The Definitive Lennon FLAC/Disc2/03 John Lennon - Out The Blue.flac
Format                                   : FLAC
Format/Info                              : Free Lossless Audio Codec
File size                                : 20.5 MiB
Duration                                 : 3mn 23s
Overall bit rate mode                    : Variable
Overall bit rate                         : 845 Kbps
Album                                    : The Definitive Lennon (Disc2)
Album/Performer                          : John Lennon / John Lennon
Track name                               : Out The Blue
Track name/Position                      : 3
Performer                                : John Lennon
Genre                                    : Rock
Recorded date                            : 2005
Writing application                      : MediaMonkey 3.1.0

Audio
Format                                   : FLAC
Format/Info                              : Free Lossless Audio Codec
Duration                                 : 3mn 23s
Bit rate mode                            : Variable
Bit rate                                 : 845 Kbps
Channel(s)                               : 2 channels
Sampling rate                            : 44.1 KHz
Bit depth                                : 16 bits
Stream size                              : 20.5 MiB (100%)
Writing library                          : libFLAC 1.2.1 (UTC 2007-09-17)

General
Complete name                            : /Users/user/Music/John Lennon/John Lennon - 2005 - Working Class Hero - The Definitive Lennon FLAC/Disc2/04 John Lennon - Whatever Gets You Thru The Night.flac
Format                                   : FLAC
Format/Info                              : Free Lossless Audio Codec
File size                                : 22.0 MiB
Duration                                 : 3mn 26s
Overall bit rate mode                    : Variable
Overall bit rate                         : 892 Kbps
Album                                    : The Definitive Lennon (Disc2)
Album/Performer                          : John Lennon / John Lennon
Track name                               : Whatever Gets You Thru The Night
Track name/Position                      : 4
Performer                                : John Lennon
Genre                                    : Rock
Recorded date                            : 2005
Writing application                      : MediaMonkey 3.1.0

Audio
Format                                   : FLAC
Format/Info                              : Free Lossless Audio Codec
Duration                                 : 3mn 26s
Bit rate mode                            : Variable
Bit rate                                 : 891 Kbps
Channel(s)                               : 2 channels
Sampling rate                            : 44.1 KHz
Bit depth                                : 16 bits
Stream size                              : 22.0 MiB (100%)
Writing library                          : libFLAC 1.2.1 (UTC 2007-09-17)

General
Complete name                            : /Users/user/Music/John Lennon/John Lennon - 2005 - Working Class Hero - The Definitive Lennon FLAC/Disc2/05 John Lennon - Love.flac
Format                                   : FLAC
Format/Info                              : Free Lossless Audio Codec
File size                                : 11.7 MiB
Duration                                 : 3mn 25s
Overall bit rate mode                    : Variable
Overall bit rate                         : 477 Kbps
Album                                    : The Definitive Lennon (Disc2)
Album/Performer                          : John Lennon / John Lennon
Track name                               : Love
Track name/Position                      : 5
Performer                                : John Lennon
Genre                                    : Rock
Recorded date                            : 2005
Writing application                      : MediaMonkey 3.1.0

Audio
Format                                   : FLAC
Format/Info                              : Free Lossless Audio Codec
Duration                                 : 3mn 25s
Bit rate mode                            : Variable
Bit rate                                 : 477 Kbps
Channel(s)                               : 2 channels
Sampling rate                            : 44.1 KHz
Bit depth                                : 16 bits
Stream size                              : 11.7 MiB (100%)
Writing library                          : libFLAC 1.2.1 (UTC 2007-09-17)

General
Complete name                            : /Users/user/Music/John Lennon/John Lennon - 2005 - Working Class Hero - The Definitive Lennon FLAC/Disc2/06 John Lennon - Mother.flac
Format                                   : FLAC
Format/Info                              : Free Lossless Audio Codec
File size                                : 27.1 MiB
Duration                                 : 5mn 34s
Overall bit rate mode                    : Variable
Overall bit rate                         : 680 Kbps
Album                                    : The Definitive Lennon (Disc2)
Album/Performer                          : John Lennon / John Lennon
Track name                               : Mother
Track name/Position                      : 6
Performer                                : John Lennon
Genre                                    : Rock
Recorded date                            : 2005
Writing application                      : MediaMonkey 3.1.0

Audio
Format                                   : FLAC
Format/Info                              : Free Lossless Audio Codec
Duration                                 : 5mn 34s
Bit rate mode                            : Variable
Bit rate                                 : 679 Kbps
Channel(s)                               : 2 channels
Sampling rate                            : 44.1 KHz
Bit depth                                : 16 bits
Stream size                              : 27.1 MiB (100%)
Writing library                          : libFLAC 1.2.1 (UTC 2007-09-17)

General
Complete name                            : /Users/user/Music/John Lennon/John Lennon - 2005 - Working Class Hero - The Definitive Lennon FLAC/Disc2/07 John Lennon - Beautiful Boy (Darling Boy).flac
Format                                   : FLAC
Format/Info                              : Free Lossless Audio Codec
File size                                : 22.8 MiB
Duration                                 : 4mn 1s
Overall bit rate mode                    : Variable
Overall bit rate                         : 792 Kbps
Album                                    : The Definitive Lennon (Disc2)
Album/Performer                          : John Lennon / John Lennon
Track name                               : Beautiful Boy (Darling Boy)
Track name/Position                      : 7
Performer                                : John Lennon
Genre                                    : Rock
Recorded date                            : 2005
Writing application                      : MediaMonkey 3.1.0

Audio
Format                                   : FLAC
Format/Info                              : Free Lossless Audio Codec
Duration                                 : 4mn 1s
Bit rate mode                            : Variable
Bit rate                                 : 792 Kbps
Channel(s)                               : 2 channels
Sampling rate                            : 44.1 KHz
Bit depth                                : 16 bits
Stream size                              : 22.8 MiB (100%)
Writing library                          : libFLAC 1.2.1 (UTC 2007-09-17)

General
Complete name                            : /Users/user/Music/John Lennon/John Lennon - 2005 - Working Class Hero - The Definitive Lennon FLAC/Disc2/08 John Lennon - Woman is The Nigger of The World.flac
Format                                   : FLAC
Format/Info                              : Free Lossless Audio Codec
File size                                : 36.7 MiB
Duration                                 : 5mn 16s
Overall bit rate mode                    : Variable
Overall bit rate                         : 974 Kbps
Album                                    : The Definitive Lennon (Disc2)
Album/Performer                          : John Lennon / John Lennon
Track name                               : Woman is The Nigger of The World
Track name/Position                      : 8
Performer                                : John Lennon
Genre                                    : Rock
Recorded date                            : 2005
Writing application                      : MediaMonkey 3.1.0

Audio
Format                                   : FLAC
Format/Info                              : Free Lossless Audio Codec
Duration                                 : 5mn 16s
Bit rate mode                            : Variable
Bit rate                                 : 974 Kbps
Channel(s)                               : 2 channels
Sampling rate                            : 44.1 KHz
Bit depth                                : 16 bits
Stream size                              : 36.7 MiB (100%)
Writing library                          : libFLAC 1.2.1 (UTC 2007-09-17)

General
Complete name                            : /Users/user/Music/John Lennon/John Lennon - 2005 - Working Class Hero - The Definitive Lennon FLAC/Disc2/09 John Lennon - God.flac
Format                                   : FLAC
Format/Info                              : Free Lossless Audio Codec
File size                                : 21.6 MiB
Duration                                 : 4mn 10s
Overall bit rate mode                    : Variable
Overall bit rate                         : 722 Kbps
Album                                    : The Definitive Lennon (Disc2)
Album/Performer                          : John Lennon / John Lennon
Track name                               : God
Track name/Position                      : 9
Performer                                : John Lennon
Genre                                    : Rock
Recorded date                            : 2005
Writing application                      : MediaMonkey 3.1.0

Audio
Format                                   : FLAC
Format/Info                              : Free Lossless Audio Codec
Duration                                 : 4mn 10s
Bit rate mode                            : Variable
Bit rate                                 : 722 Kbps
Channel(s)                               : 2 channels
Sampling rate                            : 44.1 KHz
Bit depth                                : 16 bits
Stream size                              : 21.6 MiB (100%)
Writing library                          : libFLAC 1.2.1 (UTC 2007-09-17)

General
Complete name                            : /Users/user/Music/John Lennon/John Lennon - 2005 - Working Class Hero - The Definitive Lennon FLAC/Disc2/10 John Lennon - Scared.flac
Format                                   : FLAC
Format/Info                              : Free Lossless Audio Codec
File size                                : 28.1 MiB
Duration                                 : 4mn 36s
Overall bit rate mode                    : Variable
Overall bit rate                         : 851 Kbps
Album                                    : The Definitive Lennon (Disc2)
Album/Performer                          : John Lennon / John Lennon
Track name                               : Scared
Track name/Position                      : 10
Performer                                : John Lennon
Genre                                    : Rock
Recorded date                            : 2005
Writing application                      : MediaMonkey 3.1.0

Audio
Format                                   : FLAC
Format/Info                              : Free Lossless Audio Codec
Duration                                 : 4mn 36s
Bit rate mode                            : Variable
Bit rate                                 : 851 Kbps
Channel(s)                               : 2 channels
Sampling rate                            : 44.1 KHz
Bit depth                                : 16 bits
Stream size                              : 28.1 MiB (100%)
Writing library                          : libFLAC 1.2.1 (UTC 2007-09-17)

General
Complete name                            : /Users/user/Music/John Lennon/John Lennon - 2005 - Working Class Hero - The Definitive Lennon FLAC/Disc2/11 John Lennon - #9 Dream.flac
Format                                   : FLAC
Format/Info                              : Free Lossless Audio Codec
File size                                : 30.0 MiB
Duration                                 : 4mn 47s
Overall bit rate mode                    : Variable
Overall bit rate                         : 877 Kbps
Album                                    : The Definitive Lennon (Disc2)
Album/Performer                          : John Lennon / John Lennon
Track name                               : #9 Dream
Track name/Position                      : 11
Performer                                : John Lennon
Genre                                    : Rock
Recorded date                            : 2005
Writing application                      : MediaMonkey 3.1.0

Audio
Format                                   : FLAC
Format/Info                              : Free Lossless Audio Codec
Duration                                 : 4mn 47s
Bit rate mode                            : Variable
Bit rate                                 : 877 Kbps
Channel(s)                               : 2 channels
Sampling rate                            : 44.1 KHz
Bit depth                                : 16 bits
Stream size                              : 30.0 MiB (100%)
Writing library                          : libFLAC 1.2.1 (UTC 2007-09-17)

General
Complete name                            : /Users/user/Music/John Lennon/John Lennon - 2005 - Working Class Hero - The Definitive Lennon FLAC/Disc2/12 John Lennon - I'm Losing You.flac
Format                                   : FLAC
Format/Info                              : Free Lossless Audio Codec
File size                                : 25.8 MiB
Duration                                 : 3mn 56s
Overall bit rate mode                    : Variable
Overall bit rate                         : 915 Kbps
Album                                    : The Definitive Lennon (Disc2)
Album/Performer                          : John Lennon / John Lennon
Track name                               : I'm Losing You
Track name/Position                      : 12
Performer                                : John Lennon
Genre                                    : Rock
Recorded date                            : 2005
Writing application                      : MediaMonkey 3.1.0

Audio
Format                                   : FLAC
Format/Info                              : Free Lossless Audio Codec
Duration                                 : 3mn 56s
Bit rate mode                            : Variable
Bit rate                                 : 915 Kbps
Channel(s)                               : 2 channels
Sampling rate                            : 44.1 KHz
Bit depth                                : 16 bits
Stream size                              : 25.8 MiB (100%)
Writing library                          : libFLAC 1.2.1 (UTC 2007-09-17)

General
Complete name                            : /Users/user/Music/John Lennon/John Lennon - 2005 - Working Class Hero - The Definitive Lennon FLAC/Disc2/13 John Lennon - Isolation.flac
Format                                   : FLAC
Format/Info                              : Free Lossless Audio Codec
File size                                : 13.8 MiB
Duration                                 : 2mn 52s
Overall bit rate mode                    : Variable
Overall bit rate                         : 668 Kbps
Album                                    : The Definitive Lennon (Disc2)
Album/Performer                          : John Lennon / John Lennon
Track name                               : Isolation
Track name/Position                      : 13
Performer                                : John Lennon
Genre                                    : Rock
Recorded date                            : 2005
Writing application                      : MediaMonkey 3.1.0

Audio
Format                                   : FLAC
Format/Info                              : Free Lossless Audio Codec
Duration                                 : 2mn 52s
Bit rate mode                            : Variable
Bit rate                                 : 667 Kbps
Channel(s)                               : 2 channels
Sampling rate                            : 44.1 KHz
Bit depth                                : 16 bits
Stream size                              : 13.8 MiB (100%)
Writing library                          : libFLAC 1.2.1 (UTC 2007-09-17)

General
Complete name                            : /Users/user/Music/John Lennon/John Lennon - 2005 - Working Class Hero - The Definitive Lennon FLAC/Disc2/14 John Lennon - Cold Turkey.flac
Format                                   : FLAC
Format/Info                              : Free Lossless Audio Codec
File size                                : 27.8 MiB
Duration                                 : 5mn 3s
Overall bit rate mode                    : Variable
Overall bit rate                         : 767 Kbps
Album                                    : The Definitive Lennon (Disc2)
Album/Performer                          : John Lennon / John Lennon
Track name                               : Cold Turkey
Track name/Position                      : 14
Performer                                : John Lennon
Genre                                    : Rock
Recorded date                            : 2005
Writing application                      : MediaMonkey 3.1.0

Audio
Format                                   : FLAC
Format/Info                              : Free Lossless Audio Codec
Duration                                 : 5mn 3s
Bit rate mode                            : Variable
Bit rate                                 : 767 Kbps
Channel(s)                               : 2 channels
Sampling rate                            : 44.1 KHz
Bit depth                                : 16 bits
Stream size                              : 27.8 MiB (100%)
Writing library                          : libFLAC 1.2.1 (UTC 2007-09-17)

General
Complete name                            : /Users/user/Music/John Lennon/John Lennon - 2005 - Working Class Hero - The Definitive Lennon FLAC/Disc2/15 John Lennon - Intuition.flac
Format                                   : FLAC
Format/Info                              : Free Lossless Audio Codec
File size                                : 19.9 MiB
Duration                                 : 3mn 9s
Overall bit rate mode                    : Variable
Overall bit rate                         : 881 Kbps
Album                                    : The Definitive Lennon (Disc2)
Album/Performer                          : John Lennon / John Lennon
Track name                               : Intuition
Track name/Position                      : 15
Performer                                : John Lennon
Genre                                    : Rock
Recorded date                            : 2005
Writing application                      : MediaMonkey 3.1.0

Audio
Format                                   : FLAC
Format/Info                              : Free Lossless Audio Codec
Duration                                 : 3mn 9s
Bit rate mode                            : Variable
Bit rate                                 : 880 Kbps
Channel(s)                               : 2 channels
Sampling rate                            : 44.1 KHz
Bit depth                                : 16 bits
Stream size                              : 19.8 MiB (100%)
Writing library                          : libFLAC 1.2.1 (UTC 2007-09-17)

General
Complete name                            : /Users/user/Music/John Lennon/John Lennon - 2005 - Working Class Hero - The Definitive Lennon FLAC/Disc2/16 John Lennon - Gimme Some Truth.flac
Format                                   : FLAC
Format/Info                              : Free Lossless Audio Codec
File size                                : 20.8 MiB
Duration                                 : 3mn 15s
Overall bit rate mode                    : Variable
Overall bit rate                         : 893 Kbps
Album                                    : The Definitive Lennon (Disc2)
Album/Performer                          : John Lennon / John Lennon
Track name                               : Gimme Some Truth
Track name/Position                      : 16
Performer                                : John Lennon
Genre                                    : Rock
Recorded date                            : 2005
Writing application                      : MediaMonkey 3.1.0

Audio
Format                                   : FLAC
Format/Info                              : Free Lossless Audio Codec
Duration                                 : 3mn 15s
Bit rate mode                            : Variable
Bit rate                                 : 893 Kbps
Channel(s)                               : 2 channels
Sampling rate                            : 44.1 KHz
Bit depth                                : 16 bits
Stream size                              : 20.8 MiB (100%)
Writing library                          : libFLAC 1.2.1 (UTC 2007-09-17)

General
Complete name                            : /Users/user/Music/John Lennon/John Lennon - 2005 - Working Class Hero - The Definitive Lennon FLAC/Disc2/17 John Lennon - Give Peace A Chance.flac
Format                                   : FLAC
Format/Info                              : Free Lossless Audio Codec
File size                                : 33.3 MiB
Duration                                 : 4mn 50s
Overall bit rate mode                    : Variable
Overall bit rate                         : 960 Kbps
Album                                    : The Definitive Lennon (Disc2)
Album/Performer                          : John Lennon / John Lennon
Track name                               : Give Peace A Chance
Track name/Position                      : 17
Performer                                : John Lennon
Genre                                    : Rock
Recorded date                            : 2005
Writing application                      : MediaMonkey 3.1.0

Audio
Format                                   : FLAC
Format/Info                              : Free Lossless Audio Codec
Duration                                 : 4mn 50s
Bit rate mode                            : Variable
Bit rate                                 : 960 Kbps
Channel(s)                               : 2 channels
Sampling rate                            : 44.1 KHz
Bit depth                                : 16 bits
Stream size                              : 33.3 MiB (100%)
Writing library                          : libFLAC 1.2.1 (UTC 2007-09-17)

General
Complete name                            : /Users/user/Music/John Lennon/John Lennon - 2005 - Working Class Hero - The Definitive Lennon FLAC/Disc2/18 John Lennon - Real Love.flac
Format                                   : FLAC
Format/Info                              : Free Lossless Audio Codec
File size                                : 17.9 MiB
Duration                                 : 4mn 12s
Overall bit rate mode                    : Variable
Overall bit rate                         : 595 Kbps
Album                                    : The Definitive Lennon (Disc2)
Album/Performer                          : John Lennon / John Lennon
Track name                               : Real Love
Track name/Position                      : 18
Performer                                : John Lennon
Genre                                    : Rock
Recorded date                            : 2005
Writing application                      : MediaMonkey 3.1.0

Audio
Format                                   : FLAC
Format/Info                              : Free Lossless Audio Codec
Duration                                 : 4mn 12s
Bit rate mode                            : Variable
Bit rate                                 : 595 Kbps
Channel(s)                               : 2 channels
Sampling rate                            : 44.1 KHz
Bit depth                                : 16 bits
Stream size                              : 17.9 MiB (100%)
Writing library                          : libFLAC 1.2.1 (UTC 2007-09-17)

General
Complete name                            : /Users/user/Music/John Lennon/John Lennon - 2005 - Working Class Hero - The Definitive Lennon FLAC/Disc2/19 John Lennon - Grow Old With Me.flac
Format                                   : FLAC
Format/Info                              : Free Lossless Audio Codec
File size                                : 16.8 MiB
Duration                                 : 3mn 20s
Overall bit rate mode                    : Variable
Overall bit rate                         : 704 Kbps
Album                                    : The Definitive Lennon (Disc2)
Album/Performer                          : John Lennon / John Lennon
Track name                               : Grow Old With Me
Track name/Position                      : 19
Performer                                : John Lennon
Genre                                    : Rock
Recorded date                            : 2005
Writing application                      : MediaMonkey 3.1.0

Audio
Format                                   : FLAC
Format/Info                              : Free Lossless Audio Codec
Duration                                 : 3mn 20s
Bit rate mode                            : Variable
Bit rate                                 : 704 Kbps
Channel(s)                               : 2 channels
Sampling rate                            : 44.1 KHz
Bit depth                                : 16 bits
Stream size                              : 16.8 MiB (100%)
Writing library                          : libFLAC 1.2.1 (UTC 2007-09-17)

General
Complete name                            : /Users/user/Music/John Lennon/John Lennon - 2005 - Working Class Hero - The Definitive Lennon FLAC/Disc2/Folder.auCDtect.txt
File size                                : 7.98 KiB

General
Complete name                            : /Users/user/Music/John Lennon/John Lennon - 2005 - Working Class Hero - The Definitive Lennon FLAC/front.jpg
Format                                   : JPEG
File size                                : 283 KiB

Image
Format                                   : JPEG
Width                                    : 1 984 pixels
Height                                   : 1 984 pixels
Color space                              : YUV
Chroma subsampling                       : 4:2:0
Bit depth                                : 8 bits
Compression mode                         : Lossy
Stream size                              : 283 KiB (100%)

Working Class Hero: The Definitive Lennon (рус. Герой рабочего класса: Наиболее полный сборник Леннона) — двухдисковый альбом-сборник песен Джона Леннона, выпущенный лейблом Capitol Records 3 октября 2005 года (номер по каталогу CDP 0946 3 40391 2 3), в ознаменование 65-летия Леннона. Сборник содержит версии песен Джона Леннона, ремикшированные и ремастированные под контролем его вдовы Йоко Оно в период с 2000 по 2005 годы. Сборник был очень хорошо встречен публикой и критиками и достиг 11-го места в чарте альбомов Великобритании; заметно меньше был успех сборника в США, где в чарте альбомов Billboard 200 он стартовал на 135-м месте 22 октября 2005, продержавшись в чарте только три недели.
38 вошедших в сборник треков охватывают всю сольную карьеру Леннона; в сборник вошли все его песни, выходившие на синглах, за исключением посмертно выпущенной «Every Man Has A Woman Who Loves Him», но не всегда в той же версии или в той же редакции, в которой песня выпускалась первоначально. Представлены песни со всех восьми студийных альбомов Леннона, выпущенных с 1970 по 1984 год, а также в подборку входят все песни, выпущенные на ранее изданном сборнике Lennon Legend, и все (за исключением одной), выпущенные на сборнике The John Lennon Collection — но иногда не совсем в той же версии, чем выпускавшаяся раньше.
Время раздачи: 24/7 до 3–x скачавших
[NNM-Club.ru]_John Lennon - 2005 - Working Class Hero - The Definitive Lennon FLAC.torrent
 Торрент: Платиновая раздача  Зарегистрирован
 
Скачать


 Зарегистрирован:   21 Июл 2013 13:31:46
 Размер:   899 MB  (
 Рейтинг:   4.8 (Голосов: 20)
 Поблагодарили:   73
 Проверка:   Оформление проверено модератором 22 Июл 2013 05:36:23
Как cкачать  ·  Как раздать  ·  Правильно оформить  ·  Поднять ратио!  
arko77
Стаж: 9 лет 10 мес.
Сообщений: 311
Ratio: 24.841
44.94%
Большое спасибо за релиз и за качество ... !!!
Показать сообщения:   
Начать новую тему   Ответить на тему    Торрент-трекер NNM-Club -> Rock, Alternative, Punk, Metal -> Rock (Lossless) Часовой пояс: GMT + 3
Страница 1 из 1