Классический форум-трекер
canvas not supported
Нас вместе: 4 232 974

Миссия «Серенити» / Serenity (2005) BDRip


 
 
RSS
Начать новую тему   Ответить на тему    Торрент-трекер NNM-Club -> Зарубежное кино -> Зарубежные Фильмы (SD)
Автор Сообщение
Marioxo ®
Стаж: 11 лет 5 мес.
Сообщений: 61
Ratio: 8.309
Раздал: 3.58 TB
Поблагодарили: 10500
100%
russia.gif
Миссия «Серенити» / Serenity (2005) BDRip
Производство: США
Жанр: Фантастика, Боевик, Приключения

Описание фильма:
Космический «морской волк» и ветеран Гражданской Галактической войны Малькольм «Мэл» Рейнольдс — теперь всего лишь капитан транспортного корабля. Когда они взяли на борт пассажиров — молодого доктора и его странную сестру с телепатическими способностями, ни он, ни его товарищи не предполагали, в какую историю ввяжутся. Спасаясь сразу от нескольких могущественных врагов — и от военных сил тоталитарного Вселенского Альянса, и от ужасных каннибалов Жнецов, команда корабля даже не догадывалась, какая угроза скрывается на борту «Серенити».

Режиссер: Джосс Уидон
Актеры: Натан Филлион, Джина Торрес, Алан Тьюдик, Морена Баккарин, Адам Болдуин, Джевел Стэйт, Шон Мехер, Саммер Гло, Рон Гласс, Чиветель Эджиофор, Дэвид Крумхольц, Майкл Хичкок, Сара Полстон

Продолжительность: 01:59:03
Качество видео: BDRip
Перевод: Дублированный
Язык субтитров: Отсутствуют



Дата мировой премьеры: 22 августа 2005
Дата российской премьеры: 13 октября 2005, «UIP»
Дата выхода DVD релиза: 10 марта 2009, «Юниверсал Пикчерс Рус»

Видеокодек: Xvid
Битрейт видео: ~744 kbps
Размер кадра: 672x288
Аудиокодек: MP3 2.0
Битрейт аудио: 128 kbps
Общее
Полное имя : E:\Торренты на раздачу\Миссия «Серенити»\Serenity.avi
Формат : AVI
Формат/Информация : Audio Video Interleave
Размер файла : 751 Мбайт
Продолжительность : 1 ч. 59 м.
Общий поток : 882 Кбит/сек
Программа кодирования : VirtualDubMod 1.5.10.3
Библиотека кодирования : VirtualDubMod build 2550/release

Видео
Идентификатор : 0
Формат : MPEG-4 Visual
Профиль формата : Advanced Simple@L5
Параметр BVOP формата : 1
Параметр QPel формата : Нет
Параметр GMC формата : Без точки перехода
Параметр матрицы формата : Выборочная
Идентификатор кодека : XVID
Идентификатор кодека/Подсказка : XviD
Продолжительность : 1 ч. 59 м.
Битрейт : 744 Кбит/сек
Ширина : 672 пикселя
Высота : 288 пикселей
Соотношение сторон : 2,35:1
Частота кадров : 23,976 кадра/сек
Цветовое пространство : YUV
Субдискретизация насыщенности : 4:2:0
Битовая глубина : 8 бит
Тип развёртки : Прогрессивная
Метод сжатия : С потерями
Бит/(Пиксели*Кадры) : 0.160
Размер потока : 634 Мбайт (84%)
Библиотека кодирования : XviD 73

Аудио
Идентификатор : 1
Формат : MPEG Audio
Версия формата : Version 1
Профиль формата : Layer 3
Идентификатор кодека : 55
Идентификатор кодека/Подсказка : MP3
Продолжительность : 1 ч. 58 м.
Вид битрейта : Постоянный
Битрейт : 128 Кбит/сек
Каналы : 2 канала
Частота : 48,0 КГц
Метод сжатия : С потерями
Размер потока : 109 Мбайт (15%)
Выравнивание : Соединение по промежуткам
Продолжительность промежутка : 42 мс. (1,00 видеокадр)
Время предзагрузки промежутка : 504 мс.
Библиотека кодирования : LAME3.99r
Настройки программы : -m s -V 4 -q 0 -lowpass 17 -b 128
Скриншоты:


Все раздачи фильма Миссия «Серенити» / Serenity (2005)
+ сериал Светлячок / Firefly (2002-2003)
Время раздачи: ~ С 14:00 до 03:00 (10-15 скачавших)
[NNM-Club.me]_Serenity.torrent
 Торрент: Платиновая раздача  Зарегистрирован
 
Скачать


Примагнититься
 Зарегистрирован:   06 Авг 2013 18:04:13
 Размер:   751 MB  (
 Рейтинг:   4.7 (Голосов: 93)
 Поблагодарили:   361
 Проверка:   Оформление проверено модератором 07 Авг 2013 10:08:17
Как cкачать  ·  Как раздать  ·  Правильно оформить  ·  Поднять ратио!  
kraven86
Стаж: 13 лет 1 мес.
Сообщений: 790
Ratio: 1.894
1.61%
russia.gif
Фильм бомбейский!!!
sintep
Стаж: 11 лет 6 мес.
Сообщений: 28
Ratio: 6.06
100%
Вы лучше целиком сериал светлячок по ихнему фаерфлай посмотрите там серий 5-8.
Sir@no.de
Стаж: 14 лет
Сообщений: 50
Ratio: 3.148
100%
ukraine.gif
Жаль, так и не сняли продолжение.... (
SlavaIsaev
Стаж: 13 лет 9 мес.
Сообщений: 125
Ratio: 58.952
Раздал: 8.098 TB
100%
russia.gif
Фильм прекрасен и, на мой взгляд, заслуживает звания Must Have.
Sir@no.de писал(а): Перейти к сообщению
Жаль, так и не сняли продолжение.... (

На какой-то киношной тусовке сидели рядом Уидон и Филлион. Был задан вопрос о продолжении. Уидон неуловимо-уловимым намеком дал понять, что вполне может быть. Хотя история, изложенная в сериале имеет своё логическое завершение в полнометражном фильме.
Теперь собственно по самому релизу. На мой взгляд выставлять такие проверенные временем шедевры надо как минимум в таком качестве.
faveon
Стаж: 13 лет 9 мес.
Сообщений: 1912
Ratio: 0.585
100%
russia.gif
sintep писал(а): Перейти к сообщению
ы лучше целиком сериал светлячок по ихнему фаерфлай посмотрите там серий 5-8.

14 серий
Сергей Шибаев
Стаж: 13 лет 6 мес.
Сообщений: 10
Ratio: 7.095
100%
SlavaIsaev писал(а): Перейти к сообщению
Фильм прекрасен и, на мой взгляд, заслуживает звания Must Have.
Sir@no.de писал(а): Перейти к сообщению
Жаль, так и не сняли продолжение.... (

На какой-то киношной тусовке сидели рядом Уидон и Филлион. Был задан вопрос о продолжении. Уидон неуловимо-уловимым намеком дал понять, что вполне может быть. Хотя история, изложенная в сериале имеет своё логическое завершение в полнометражном фильме.
Теперь собственно по самому релизу. На мой взгляд выставлять такие проверенные временем шедевры надо как минимум в таком качестве.
не все качают в таком качестве,у меня например медиоплэер поддерживает файлы не более 3 гигов,а телек 43 дюйма-ЖК изображение очень даже приличное
araz
Релизер
 
Стаж: 16 лет 11 мес.
Сообщений: 384
Ratio: 10.521
Поблагодарили: 1238
100%
russia.gif
Да, с этого шедевра началось мое знакомство с сериалом. Пожалуй, лучше посмотреть сначала сериал. Но! И фильм обязателен к просмотру. Он настолько живой и классный - что просто сердце радуется.
1AlexK
Стаж: 13 лет 2 мес.
Сообщений: 115
Ratio: 7.976
100%
Фильм можно смотреть нескончаемое количество раз!!!! Просто шедевр!!! Игра актеров великолепна!!! Очень жаль что не стали снимать продолжение! Сериал конечно тоже не плох )))
artmOn
Стаж: 12 лет 10 мес.
Сообщений: 6
Ratio: 3.895
1.06%
Откуда: Минск
belarus.gif
смотрю сериал и качаю фильм))
Показать сообщения:   
Начать новую тему   Ответить на тему    Торрент-трекер NNM-Club -> Зарубежное кино -> Зарубежные Фильмы (SD) Часовой пояс: GMT + 3
Страница 1 из 1