Классический форум-трекер
canvas not supported
Нас вместе: 4 233 331

Ленинградское время (2012) TVRip


 
 
RSS
Начать новую тему   Ответить на тему    Торрент-трекер NNM-Club -> Документалистика и Телепередачи -> Музыкальные шоу
Автор Сообщение
smpeal ®
Стаж: 11 лет 9 мес.
Сообщений: 62
Ratio: 99.87
Поблагодарили: 7340
100%
ussr.gif
Ленинградское время (2012) TVRip
Режиссер / Телекомпания: Светлана Лялькина / 100-ТВ Санкт-Петербург
Год выпуска: 2012
Жанр: Телепередача

Описание:
Давайте вместе вернёмся в прошлое, на 1 час отправимся в старую ленинградскую квартиру.

Новый год ностальгический праздник. Он каждый раз НОВЫЙ. а мы
каждый раз те же.

Давайте представим, были бы мы другими, если было бы сейчас всего
лишь 9 вечера 31 декабря 2071 года в Ленинграде.

Участники: Надежда Модзалевская, Валерий Татаров, Елена Снитовская, Анастасия Измайлова, Алексей Астапчик, Евгений Абузяров, Юрий Володарович Дормидонтов, Артём Татаринов, Александр Малич, Николай Солодников, Борис Бедросов, Ольга Комок, Леонид Генусов, Наталья Бандурина, Дарья Александрова

Текст за кадром: Владимир Трошков и Андрей Авсеевич
Надежда Модзалевская - ведущая программы "Курс на выживание" - в роли Наденьки - редактора газеты "Вечерний Ленинград";

Валерий Татаров - ведущий программы "Нужное подчеркнуть!" - в роли жениха Нади - директора Елисеевского магазина;

Елена Снитовская - ведущая программы "Последние известия" - в роли подруги Нади - спортивного врача;

Анастасия Измайлова - ведущая программы "EUROMAXX. Окно в Европу" - в роли подруги Нади - тренера по горным лыжам;

Алексей Астапчик - ведущий программы "Однажды утром" - в роли кузена Нади из Мелитополя;

Евгений Абузяров - ведущий программы "Автоклуб" - в роли кузена Нади из Мелитополя;

Юрий Володарович Дормидонтов - погодный дегустатор программы "Однажды утром" - в роли таксиста;

Артём Татаринов - ведущий программы "Последние известия. СПОРТ" - в роли мичмана ВМФ СССР;

Александр Малич - ведущий культурного обозрения "АРТ ТВ" - в роли аспиранта-филолога ЛГУ;

Николай Солодников- ведущий ток-шоу "Кипяток" - в роли руководителя партячейки НИИ постоянного тока, фарцовщика;

Борис Бедросов - ведущий программы "Хроника происшествий" - в роли милиционера;

Ольга Комок - ведущая программы "Прогноз культуры на "АРТ ТВ" - в роли подруги Нади - музыкального критика;

Леонид Генусов- ведущий ток-шоу "ФУТБОЛ PRO&СONTRA" - в роли заместителя худрука Ленинградского Мюзик-Холла;

Наталья Бандурина - ведущий корреспондент редакции информационного вещания - в роли девушки из провинции, провалившей экзамен в театральный институт;

Дарья Александрова - ведущая культурного обозрения "АРТ ТВ" - в роли начинающей примы Мюзик-Холла;
Эдуард Хиль - "Человек из дома вышел"

Игорь Корнелюк - "Дожди"

ВИА "Поющие гитары" - "Я пою", "Песенка велосипедистов", "Каракум", "Сумерки", "Если любишь ты", "Синий иней", "Карлсон", "Люди встречаются", "Воскресенье", "Бочка вина", "Нет тебя прекрасней", "Ленинград"

Семён Стругачёв - "До свиданья, Любка"

Людмила Сенчина - "День рождения"
Место съёмок:


Продолжительность: 01:25:51
Качество видео: TVRip
Видеокодек: Xvid
Битрейт видео: 1494 Kbps
Размер кадра: 720х576
Аудиокодек: AC3
Битрейт аудио: 224 Kbps, 2 канала
Общее
Полное имя : Z:\ТВ фильмы и спектакли\Ленинградское время (2012) TVRip.avi
Формат : AVI
Формат/Информация : Audio Video Interleave
Размер файла : 1,04 Гбайт
Продолжительность : 1 ч. 25 м.
Общий поток : 1727 Кбит/сек
Программа кодирования : VirtualDubModRus 1.5.10.2 (build 2542/release)
Библиотека кодирования : VirtualDubMod build 2542/release

Видео
Идентификатор : 0
Формат : MPEG-4 Visual
Профиль формата : Advanced Simple@L5
Параметр BVOP формата : 2
Параметр QPel формата : Нет
Параметр GMC формата : Без точки перехода
Параметр матрицы формата : Default (H.263)
Режим смешивания : Сжатый битовый поток
Идентификатор кодека : XVID
Идентификатор кодека/Подсказка : XviD
Продолжительность : 1 ч. 25 м.
Битрейт : 1494 Кбит/сек
Ширина : 720 пикселей
Высота : 576 пикселей
Соотношение сторон : 5:4
Частота кадров : 25,000 кадров/сек
Стандарт вещания : PAL
Цветовое пространство : YUV
Субдискретизация насыщенности : 4:2:0
Битовая глубина : 8 бит
Тип развёртки : Прогрессивная
Метод сжатия : С потерями
Бит/(Пиксели*Кадры) : 0.144
Размер потока : 917 Мбайт (86%)
Библиотека кодирования : XviD 64

Аудио
Идентификатор : 1
Формат : AC-3
Формат/Информация : Audio Coding 3
Расширение режима : CM (complete main)
Параметр Endianness формата : Big
Идентификатор кодека : 2000
Продолжительность : 1 ч. 25 м.
Вид битрейта : Постоянный
Битрейт : 224 Кбит/сек
Каналы : 2 канала
Расположение каналов : Front: L R
Частота : 48,0 КГц
Битовая глубина : 16 бит
Метод сжатия : С потерями
Размер потока : 138 Мбайт (13%)
Выравнивание : Разделение по промежуткам
Продолжительность промежутка : 40 мс. (1,00 видеокадр)
Время предзагрузки промежутка : 500 мс.
Ведущие меняют профессии. «Ленинградское время» в новогоднюю ночь на «100 ТВ»

Скриншоты:


Время раздачи: По выходным с 12-24, иногда вечером в будни
[nnm-club]_Lenyngradskoe_vremja_2012_TVRip_avi.torrent
 Торрент:   Зарегистрирован
 
Зарегистрируйтесь и скачайте торрент!
10.9 KB

Примагнититься
 Зарегистрирован:   06 Авг 2013 22:26:39
 Размер:   1.04 GB  (
 Рейтинг:    (Голосов: 6)
 Поблагодарили:   27
 Проверка:   Оформление проверено модератором 07 Авг 2013 06:30:09
Как cкачать  ·  Как раздать  ·  Правильно оформить  ·  Поднять ратио!  
Показать сообщения:   
Начать новую тему   Ответить на тему    Торрент-трекер NNM-Club -> Документалистика и Телепередачи -> Музыкальные шоу Часовой пояс: GMT + 3
Страница 1 из 1