Классический форум-трекер
canvas not supported
Нас вместе: 4 232 976

Зомби по имени Фидо / Fido (2006) HDRip


 
 
RSS
Начать новую тему   Ответить на тему    Торрент-трекер NNM-Club -> Зарубежное кино -> Зарубежные Фильмы (SD)
Автор Сообщение
Marioxo ®
Стаж: 11 лет 5 мес.
Сообщений: 61
Ratio: 8.309
Раздал: 3.58 TB
Поблагодарили: 10500
100%
russia.gif
Зомби по имени Фидо / Fido (2006) HDRip
Год выпуска: 2006
Производство: Канада
Жанр: Драма, Комедия, Ужасы

Описание фильма:
Добро пожаловать в Уиллард, маленький город в идиллическом мире где-то в 50-х, где солнце светит каждый день, все знают своих соседей, а зомби разносят газеты…
Годы назад Земля пролетела через облако космической пыли, заставившей мертвых восстать с ненасытной жаждой человеческой плоти. Террор распространился по планете, до тех пор, пока не был изобретен ошейник, сделавший зомби управляемыми и даже полезными. Компания ZomCon появилась на свет. Благодаря их изобретению зомби стали садовниками, молочниками, прислугой, даже домашними любимцами. ZomCon старается показать, что ситуация у них под контролем. Но так ли это на самом деле?
Тимми Робинсон так не думает. Он полагает, что мир введен в заблуждение. Будучи одиноким, Тимми проводит много времени в своей комнате — даже собственные родители не замечают его. Так что когда мама покупает зомби, чтобы тот делал работу по дому, это становится для него сюрпризом. Он сильно удивляется, когда нежить предлагает поиграть в мяч. А после того, как зомби спасет героя от хулиганов, настоящая дружба рождается, и Тимми называет чудовище «Фидо».
Но когда ошейник Фидо выходит из строя, соседям приходится несладко. Чтобы распутать дело, известный специалист по контролю над зомби, мистер Боттомс, приезжает в город…

Режиссер: Эндрю Карри
Актеры: Кэрри-Энн Мосс, Билли Коннолли, Дилан Бейкер, К’Сан Рэй, Соня Беннет, Дженнифер Клемент, Роб ЛаБелль, Аарон Браун, Брэндон Олдз, Алексия Фаст

Продолжительность: 01:31:51
Качество видео: HDRip
Перевод: Многоголосый закадровый
Язык субтитров: Отсутствуют



Дата мировой премьеры: 7 сентября 2006
Дата выхода DVD релиза: 28 февраля 2008, «CP-Digital»

Видеокодек: Xvid
Битрейт видео: ~997 kbps
Размер кадра: 688x288
Аудиокодек: MP3 2.0
Битрейт аудио: 128 kbps
Общее
Полное имя : E:\Торренты на раздачу\Зомби по имени Фидо\Fido.avi
Формат : AVI
Формат/Информация : Audio Video Interleave
Размер файла : 745 Мбайт
Продолжительность : 1 ч. 31 м.
Общий поток : 1134 Кбит/сек
Название фильма : Fido.2006.HDRip_by_FIF-baga
Режиссёр : FIF-baga
Программа кодирования : VirtualDubMod 1.5.10.2 (build 2540/release)
Библиотека кодирования : VirtualDubMod build 2540/release
Правообладатель : torrents.ru
Примечание : 26.09.2010

Видео
Идентификатор : 0
Формат : MPEG-4 Visual
Профиль формата : Advanced Simple@L5
Параметр BVOP формата : 1
Параметр QPel формата : Нет
Параметр GMC формата : Без точки перехода
Параметр матрицы формата : Default (MPEG)
Идентификатор кодека : XVID
Идентификатор кодека/Подсказка : XviD
Продолжительность : 1 ч. 31 м.
Битрейт : 997 Кбит/сек
Ширина : 688 пикселей
Высота : 288 пикселей
Соотношение сторон : 2,40:1
Частота кадров : 23,976 кадра/сек
Цветовое пространство : YUV
Субдискретизация насыщенности : 4:2:0
Битовая глубина : 8 бит
Тип развёртки : Прогрессивная
Метод сжатия : С потерями
Бит/(Пиксели*Кадры) : 0.210
Размер потока : 655 Мбайт (88%)
Библиотека кодирования : XviD 1.2.1 (UTC 2008-12-04)

Аудио
Идентификатор : 1
Формат : MPEG Audio
Версия формата : Version 1
Профиль формата : Layer 3
Идентификатор кодека : 55
Идентификатор кодека/Подсказка : MP3
Продолжительность : 1 ч. 31 м.
Вид битрейта : Постоянный
Битрейт : 128 Кбит/сек
Каналы : 2 канала
Частота : 48,0 КГц
Метод сжатия : С потерями
Размер потока : 84,1 Мбайт (11%)
Выравнивание : Соединение по промежуткам
Продолжительность промежутка : 42 мс. (1,00 видеокадр)
Время предзагрузки промежутка : 504 мс.
Библиотека кодирования : LAME3.98r
Настройки программы : -m s -V 4 -q 2 -lowpass 17 -b 128
Скриншоты:


Все релизы "Зомби по имени Фидо" на сайте

Время раздачи: ~ С 14:00 до 03:00 (10-15 скачавших)
[NNM-Club.me]_Fido.torrent
 Торрент: Платиновая раздача  Зарегистрирован
 
Скачать


Примагнититься
 Зарегистрирован:   07 Авг 2013 19:35:04
 Размер:   745 MB  (
 Рейтинг:   4.6 (Голосов: 21)
 Поблагодарили:   79
 Проверка:   Оформление проверено модератором 08 Авг 2013 09:12:08
Как cкачать  ·  Как раздать  ·  Правильно оформить  ·  Поднять ратио!  
detroie
 
Стаж: 14 лет 6 мес.
Сообщений: 357
Ratio: 7.067
Раздал: 4.474 TB
100%
kazakhstan.gif
ну как?
Iojjik
Стаж: 13 лет
Сообщений: 118
Ratio: 1.773
100%
russia.gif
смотрел как то по тв, довольно необычный сюжет, разок глянуть вполне можно :)

_________________
Показать сообщения:   
Начать новую тему   Ответить на тему    Торрент-трекер NNM-Club -> Зарубежное кино -> Зарубежные Фильмы (SD) Часовой пояс: GMT + 3
Страница 1 из 1