Классический форум-трекер
canvas not supported
Нас вместе: 4 166 444

VA - Cosmic Gate - Back 2 Back - In The Mix (2003) [ALAC|Tracks]<Trance, Techno>


 
 
RSS
Начать новую тему   Ответить на тему    Торрент-трекер NNM-Club -> Аудио и Видео -> Музыка Lossless (ALAC)
Автор Сообщение
sseless ®
Меломан, Реставратор
Стаж: 9 лет
Сообщений: 3542
Ratio: 1386.827
Раздал: 45.33 TB
Поблагодарили: 160424
100%
north_korea.gif
VA - Cosmic Gate - Back 2 Back - In The Mix (2003)
Год: 14 Apr 2003
Страна-производитель диска: Германия
Издатель (лейбл): Capitol Records
Номер по каталогу: 7243 5 84324 2 8
Жанр: Trance, Techno
Продолжительность: 02:27:38

Кодек: ALAC
Тип раздачи: Tracks
Тексты: отсутствуют
Источник(релизер): E-x-c-I-m-e-R

CD1
Продолжительность: 01:13:55
Треклист:
01. Queen + Vanguard - Flash (Tomcraft Remix) 05:15
02. Svenson & Gielen - Answer The Question (Cosmic Gate Remix) 04:34
03. Lee & Boheme - Pressure (Lee & Boheme Remix) 04:15
04. OGP - What If 04:37
05. Dave Joy - First Impression (Dave202 Mix) 04:51
06. Joop - Act Of God (Hard Trance Edit) 05:29
07. Saltwater - The legacy (Clubmix) 05:25
08. Syntone - Can't Believe It (Silverblue Remix) 05:29
09. Armani & Ghost - Airport (Essential DJ Team Mix) 03:41
10. Lambda - Hold On Tight (Kaylab + Reeloop Remix) 05:06
11. Igor S - Boomerang (Igor S Mix) 04:47
12. Ricky Fobis - No Regular (Original Mix) 05:16
13. Fractal Vibe - C Song (Dynamic Vibe Mix) 05:02
14. Marco V - Echoes (Vision Mix) 05:09
15. Dj Delicious - My Beat (Dub Mix) 05:03
Код:

Exact Audio Copy V0.99 prebeta 5 from 4. May 2009

EAC extraction logfile from 4. May 2010, 0:17

Cosmic Gate / Back2Back

Used drive : _NEC DVD_RW ND-3550A Adapter: 0 ID: 0

Read mode : Secure
Utilize accurate stream : Yes
Defeat audio cache : Yes
Make use of C2 pointers : No

Read offset correction : 48
Overread into Lead-In and Lead-Out : No
Fill up missing offset samples with silence : Yes
Delete leading and trailing silent blocks : No
Null samples used in CRC calculations : Yes
Used interface : Installed external ASPI interface
Gap handling : Appended to previous track

Used output format : Internal WAV Routines
Sample format : 44.100 Hz; 16 Bit; Stereo

TOC of the extracted CD

Track | Start | Length | Start sector | End sector
---------------------------------------------------------
1 | 0:00.00 | 5:14.55 | 0 | 23604
2 | 5:14.55 | 4:33.52 | 23605 | 44131
3 | 9:48.32 | 4:14.65 | 44132 | 63246
4 | 14:03.22 | 4:36.50 | 63247 | 83996
5 | 18:39.72 | 4:50.73 | 83997 | 105819
6 | 23:30.70 | 5:28.37 | 105820 | 130456
7 | 28:59.32 | 5:24.73 | 130457 | 154829
8 | 34:24.30 | 5:28.35 | 154830 | 179464
9 | 39:52.65 | 3:40.72 | 179465 | 196036
10 | 43:33.62 | 5:05.53 | 196037 | 218964
11 | 48:39.40 | 4:46.55 | 218965 | 240469
12 | 53:26.20 | 5:15.50 | 240470 | 264144
13 | 58:41.70 | 5:01.67 | 264145 | 286786
14 | 63:43.62 | 5:08.38 | 286787 | 309924
15 | 68:52.25 | 5:02.67 | 309925 | 332641

Track 1

Filename D:\Temp\CDRips\01. Queen + Vanguard - Flash (Tomcraft Remix).wav

Pre-gap length 0:00:02.00

Peak level 99.9 %
Track quality 100.0 %
Test CRC 0377C2D3
Copy CRC 0377C2D3
Track not present in AccurateRip database
Copy OK

Track 2

Filename D:\Temp\CDRips\02. Svenson & Gielen - Answer The Question (Cosmic Gate Remix).wav

Peak level 99.9 %
Track quality 100.0 %
Test CRC 21D25670
Copy CRC 21D25670
Track not present in AccurateRip database
Copy OK

Track 3

Filename D:\Temp\CDRips\03. Lee & Boheme - Pressure (Lee & Boheme Remix).wav

Peak level 99.9 %
Track quality 100.0 %
Test CRC D7E85803
Copy CRC D7E85803
Track not present in AccurateRip database
Copy OK

Track 4

Filename D:\Temp\CDRips\04. OGP - What If.wav

Peak level 94.7 %
Track quality 100.0 %
Test CRC E729FD46
Copy CRC E729FD46
Track not present in AccurateRip database
Copy OK

Track 5

Filename D:\Temp\CDRips\05. Dave Joy - First Impression (Dave202 Mix).wav

Peak level 99.9 %
Track quality 100.0 %
Test CRC BB6D7EB0
Copy CRC BB6D7EB0
Track not present in AccurateRip database
Copy OK

Track 6

Filename D:\Temp\CDRips\06. Joop - Act Of God (Hard Trance Edit).wav

Peak level 99.9 %
Track quality 100.0 %
Test CRC 724CFB3B
Copy CRC 724CFB3B
Track not present in AccurateRip database
Copy OK

Track 7

Filename D:\Temp\CDRips\07. Saltwater - The Legacy (Clubmix).wav

Peak level 99.9 %
Track quality 100.0 %
Test CRC FDC53820
Copy CRC FDC53820
Track not present in AccurateRip database
Copy OK

Track 8

Filename D:\Temp\CDRips\08. Syntone - Can't Believe It (Silverblue Remix).wav

Peak level 100.0 %
Track quality 100.0 %
Test CRC 1F74E341
Copy CRC 1F74E341
Track not present in AccurateRip database
Copy OK

Track 9

Filename D:\Temp\CDRips\09. Armani & Ghost - Airport (Essential DJ-Team Mix).wav

Peak level 99.9 %
Track quality 100.0 %
Test CRC CD530954
Copy CRC CD530954
Track not present in AccurateRip database
Copy OK

Track 10

Filename D:\Temp\CDRips\10. Lambda - Hold On Tight (Kaylab & Reeloop Remix).wav

Peak level 100.0 %
Track quality 100.0 %
Test CRC 6A1751DC
Copy CRC 6A1751DC
Track not present in AccurateRip database
Copy OK

Track 11

Filename D:\Temp\CDRips\11. Igor S - Boomerang (Igor S Mix).wav

Peak level 99.9 %
Track quality 100.0 %
Test CRC 3E40A58D
Copy CRC 3E40A58D
Track not present in AccurateRip database
Copy OK

Track 12

Filename D:\Temp\CDRips\12. Ricky Fobis - No Regular (Original Mix).wav

Peak level 99.9 %
Track quality 100.0 %
Test CRC 9D3572C3
Copy CRC 9D3572C3
Track not present in AccurateRip database
Copy OK

Track 13

Filename D:\Temp\CDRips\13. Fractal Vibe - C Song (Dynamic Vibe Mix).wav

Peak level 99.9 %
Track quality 100.0 %
Test CRC 43CF71FA
Copy CRC 43CF71FA
Track not present in AccurateRip database
Copy OK

Track 14

Filename D:\Temp\CDRips\14. Marco V - Echoes (V.ision Mix).wav

Peak level 100.0 %
Track quality 100.0 %
Test CRC E34FECB8
Copy CRC E34FECB8
Track not present in AccurateRip database
Copy OK

Track 15

Filename D:\Temp\CDRips\15. DJ Delicious - My Beat (Dub Mix).wav

Peak level 99.9 %
Track quality 100.0 %
Test CRC 6360B595
Copy CRC 6360B595
Track not present in AccurateRip database
Copy OK

None of the tracks are present in the AccurateRip database

No errors occurred

End of status report
Код:

-----------------------

DON'T MODIFY THIS FILE

-----------------------

PERFORMER: auCDtect Task Manager, ver. 1.6.0 RC1 build 1.6.0.1
Copyright (c) 2008-2010 y-soft. All rights reserved
http://y-soft.org

ANALYZER: auCDtect: CD records authenticity detector, version 0.8.2
Copyright (c) 2004 Oleg Berngardt. All rights reserved.
Copyright (c) 2004 Alexander Djourik. All rights reserved.

FILE: 15_DJ Delicious - My Beat (Dub Mix).m4a
  Size: 34973690 Hash: 7AC77603BBB612078E500E607B64288D Accuracy: -m0
  Conclusion: CDDA 100%
  Signature: A02AF7D0593C81494AB562344BF27DF5DED895B6
FILE: 14_Marco V - Echoes (V.ision Mix).m4a
  Size: 36571166 Hash: 08409B5737D248BE89934D702D968BC4 Accuracy: -m0
  Conclusion: CDDA 100%
  Signature: 0DB29C1579E90D68642FEA9AD073FBD0EF811EA3
FILE: 13_Fractal Vibe - C Song (Dynamic Vibe Mix).m4a
  Size: 33037883 Hash: 03DBFFCF61F8320F717E2A621A38D158 Accuracy: -m0
  Conclusion: CDDA 100%
  Signature: C69E7BF3F2F9D00321D67DAB45CF3A74C07F4ECB
FILE: 12_Ricky Fobis - No Regular (Original Mix).m4a
  Size: 34870508 Hash: E4916E6943246EC4B4CCD71994A5E094 Accuracy: -m0
  Conclusion: CDDA 100%
  Signature: 28F76DB63D2746496E9694943E007DE840DB8A7F
FILE: 11_Igor S - Boomerang (Igor S Mix).m4a
  Size: 31829137 Hash: 0A2AFFB0A9ABB44477D6A0B9C9073460 Accuracy: -m0
  Conclusion: CDDA 100%
  Signature: 3EBA5E3AF28BF567DF0D98DBB133E8C34A60705A
FILE: 10_Lambda - Hold On Tight (Kaylab & Reeloop Remix).m4a
  Size: 34470584 Hash: 863C454D84CE43396E94B7C396B3603B Accuracy: -m0
  Conclusion: CDDA 100%
  Signature: 06C7EC74704EA441FEAA77696EFD9ED8B190F9B8
FILE: 09_Armani & Ghost - Airport (Essential DJ-Team Remix).m4a
  Size: 24473922 Hash: 08833558AEB8CADDAED9D57652CB46B9 Accuracy: -m0
  Conclusion: CDDA 100%
  Signature: 1F0287269142EFFC48AEAAEE4E3DF87A46C6090F
FILE: 08_Syntone - Can't Believe It (Silverblue Remix).m4a
  Size: 37617129 Hash: 64FC64B4259413F76D64F9F7356C0C26 Accuracy: -m0
  Conclusion: CDDA 100%
  Signature: 04EDE1B6AE1899079CA2AFAEE176DA855137D60D
FILE: 07_Saltwater - The Legacy (Clubmix).m4a
  Size: 41339367 Hash: EE1813A3EE58C11AE123A283A4F81B48 Accuracy: -m0
  Conclusion: CDDA 100%
  Signature: 1AD3F3A5B64CC0AB499F98E97831B1FB831884F0
FILE: 06_Joop - Act Of God (Hard Trance Edit).m4a
  Size: 37714665 Hash: E330BC9CF589D23827CB87CE0A3C39A0 Accuracy: -m0
  Conclusion: CDDA 100%
  Signature: D56E8C23C4C9ECD882D04ADAFBEFE0C29DF84792
FILE: 05_Dave Joy - First Impression (Dave 202 & Phil Green Mix).m4a
  Size: 33460551 Hash: B4949404D7D4BBDDA0E64169F3B473C3 Accuracy: -m0
  Conclusion: CDDA 100%
  Signature: 53D8F9972FD76B636DA248CD73889CC991A8CD8D
FILE: 04_OGP - What If.m4a
  Size: 33203542 Hash: 362C81D5C3DA374C1C6A068F3C8BB627 Accuracy: -m0
  Conclusion: CDDA 100%
  Signature: 07CCDE0D7902AC5258D1B88F4AAA4C8F96F2268A
FILE: 03_Lee & Boheme - Pressure (Lee & Boheme Remix).m4a
  Size: 29223511 Hash: ED3CEC2BDE5F43DBAE96272C989339D1 Accuracy: -m0
  Conclusion: CDDA 100%
  Signature: 0A27E75804282B6D98E9ED11D23835E27CD53F89
FILE: 02_Svenson & Gielen - Answer The Question (Cosmic Gate Remix).m4a
  Size: 26640476 Hash: D15188DFA5EF333467ACE1F23D8F66E3 Accuracy: -m0
  Conclusion: CDDA 100%
  Signature: 9D7A9069E0B17C9505085ACC241D6A4E77A8FC61
FILE: 01_Queen + Vanguard - Flash (Tomcraft Remix).m4a
  Size: 35893993 Hash: 7FA7C7C18A88A93BE3D1679A076D6035 Accuracy: -m0
  Conclusion: CDDA 100%
  Signature: 8AA29AA692DA5580587C0B7BF5668F087951D5F2
Просмотр доступен только для зарегистрированных пользователей
Код:

Общее
Полное имя                               : C:\2003 - Back 2 Back\CD - 1\01_Queen + Vanguard - Flash (Tomcraft Remix).m4a
Формат                                   : MPEG-4
Профиль формата                          : Apple audio with iTunes info
Идентификатор кодека                     : M4A
Размер файла                             : 34,2 Мбайт
Продолжительность                        : 5 м. 14 с.
Режим общего битрейта                    : Переменный
Общий поток                              : 912 Кбит/сек
Альбом                                   : Back 2 Back (CD1)
Альбом/Исполнитель                       : Cosmic Gate
Часть/Положение                          : 1
Часть/Всего                              : 2
Трек                                     : Flash (Tomcraft Remix)
Трек/Положение                           : 1
Трек/Всего                               : 15
Исполнитель                              : Queen + Vanguard
Жанр                                     : Trance
Дата записи                              : 2003
Дата пометки                             : UTC 2011-06-19 14:04:58
Обложка                                  : Yes
Примечание                               : Mix Album\Date: 14 April 2003 / Label: Emi Music

Аудио
Идентификатор                            : 1
Формат                                   : ALAC
Идентификатор кодека                     : alac
Идентификатор кодека/Информация          : Apple Lossless Audio Codec
Продолжительность                        : 5 м. 14 с.
Продолжительность оригинала              : 5 м. 14 с.
Source_Duration_LastFrame                : -36 мс.
Вид битрейта                             : Переменный
Битрейт                                  : 909 Кбит/сек
Каналы                                   : 2 канала
Частота                                  : 44,1 КГц
Битовая глубина                          : 16 бит
Размер потока                            : 34,1 Мбайт (100%)
Размер потока оригинала                  : 34,1 Мбайт (100%)
Язык                                     : English
Дата пометки                             : UTC 2011-06-19 14:04:58
mdhd_Duration                            : 314770

Общее
Полное имя                               : C:\2003 - Back 2 Back\CD - 1\02_Svenson & Gielen - Answer The Question (Cosmic Gate Remix).m4a
Формат                                   : MPEG-4
Профиль формата                          : Apple audio with iTunes info
Идентификатор кодека                     : M4A
Размер файла                             : 25,4 Мбайт
Продолжительность                        : 4 м. 33 с.
Режим общего битрейта                    : Переменный
Общий поток                              : 779 Кбит/сек
Альбом                                   : Back 2 Back (CD1)
Альбом/Исполнитель                       : Cosmic Gate
Часть/Положение                          : 1
Часть/Всего                              : 2
Трек                                     : Answer The Question (Cosmic Gate Remix)
Трек/Положение                           : 2
Трек/Всего                               : 15
Исполнитель                              : Syntone
Жанр                                     : Trance
Дата записи                              : 2003
Дата пометки                             : UTC 2011-06-19 14:05:29
Обложка                                  : Yes
Примечание                               : Mix Album\Date: 14 April 2003 / Label: Emi Music

Аудио
Идентификатор                            : 1
Формат                                   : ALAC
Идентификатор кодека                     : alac
Идентификатор кодека/Информация          : Apple Lossless Audio Codec
Продолжительность                        : 4 м. 33 с.
Продолжительность оригинала              : 4 м. 33 с.
Source_Duration_LastFrame                : -23 мс.
Вид битрейта                             : Переменный
Битрейт                                  : 775 Кбит/сек
Каналы                                   : 2 канала
Частота                                  : 44,1 КГц
Битовая глубина                          : 16 бит
Размер потока                            : 25,3 Мбайт (99%)
Размер потока оригинала                  : 25,3 Мбайт (99%)
Язык                                     : English
Дата пометки                             : UTC 2011-06-19 14:05:29
mdhd_Duration                            : 273717

Общее
Полное имя                               : C:\2003 - Back 2 Back\CD - 1\03_Lee & Boheme - Pressure (Lee & Boheme Remix).m4a
Формат                                   : MPEG-4
Профиль формата                          : Apple audio with iTunes info
Идентификатор кодека                     : M4A
Размер файла                             : 27,9 Мбайт
Продолжительность                        : 4 м. 14 с.
Режим общего битрейта                    : Переменный
Общий поток                              : 917 Кбит/сек
Альбом                                   : Back 2 Back (CD1)
Альбом/Исполнитель                       : Cosmic Gate
Часть/Положение                          : 1
Часть/Всего                              : 2
Трек                                     : Pressure (Lee & Boheme Remix)
Трек/Положение                           : 3
Трек/Всего                               : 15
Исполнитель                              : Lee & Bohème
Жанр                                     : Trance
Дата записи                              : 2003
Дата пометки                             : UTC 2011-06-19 14:04:41
Обложка                                  : Yes
Примечание                               : Mix Album\Date: 14 April 2003 / Label: Emi Music

Аудио
Идентификатор                            : 1
Формат                                   : ALAC
Идентификатор кодека                     : alac
Идентификатор кодека/Информация          : Apple Lossless Audio Codec
Продолжительность                        : 4 м. 14 с.
Продолжительность оригинала              : 4 м. 14 с.
Source_Duration_LastFrame                : -88 мс.
Вид битрейта                             : Переменный
Битрейт                                  : 913 Кбит/сек
Каналы                                   : 2 канала
Частота                                  : 44,1 КГц
Битовая глубина                          : 16 бит
Размер потока                            : 27,7 Мбайт (100%)
Размер потока оригинала                  : 27,7 Мбайт (100%)
Язык                                     : English
Дата пометки                             : UTC 2011-06-19 14:04:41
mdhd_Duration                            : 254955

Общее
Полное имя                               : C:\2003 - Back 2 Back\CD - 1\04_OGP - What If.m4a
Формат                                   : MPEG-4
Профиль формата                          : Apple audio with iTunes info
Идентификатор кодека                     : M4A
Размер файла                             : 31,7 Мбайт
Продолжительность                        : 4 м. 36 с.
Режим общего битрейта                    : Переменный
Общий поток                              : 960 Кбит/сек
Альбом                                   : Back 2 Back (CD1)
Альбом/Исполнитель                       : Cosmic Gate
Часть/Положение                          : 1
Часть/Всего                              : 2
Трек                                     : What If
Трек/Положение                           : 4
Трек/Всего                               : 15
Исполнитель                              : OGP
Жанр                                     : Trance
Дата записи                              : 2003
Дата пометки                             : UTC 2011-06-19 14:04:53
Обложка                                  : Yes
Примечание                               : Mix Album\Date: 14 April 2003 / Label: Emi Music

Аудио
Идентификатор                            : 1
Формат                                   : ALAC
Идентификатор кодека                     : alac
Идентификатор кодека/Информация          : Apple Lossless Audio Codec
Продолжительность                        : 4 м. 36 с.
Продолжительность оригинала              : 4 м. 36 с.
Source_Duration_LastFrame                : -22 мс.
Вид битрейта                             : Переменный
Битрейт                                  : 956 Кбит/сек
Каналы                                   : 2 канала
Частота                                  : 44,1 КГц
Битовая глубина                          : 16 бит
Размер потока                            : 31,5 Мбайт (100%)
Размер потока оригинала                  : 31,5 Мбайт (100%)
Язык                                     : English
Дата пометки                             : UTC 2011-06-19 14:04:53
mdhd_Duration                            : 276689

Общее
Полное имя                               : C:\2003 - Back 2 Back\CD - 1\05_Dave Joy - First Impression (Dave 202 & Phil Green Mix).m4a
Формат                                   : MPEG-4
Профиль формата                          : Apple audio with iTunes info
Идентификатор кодека                     : M4A
Размер файла                             : 31,9 Мбайт
Продолжительность                        : 4 м. 50 с.
Режим общего битрейта                    : Переменный
Общий поток                              : 920 Кбит/сек
Альбом                                   : Back 2 Back (CD1)
Альбом/Исполнитель                       : Cosmic Gate
Часть/Положение                          : 1
Часть/Всего                              : 2
Трек                                     : First Impression (Dave 202 & Phil Green Mix)
Трек/Положение                           : 5
Трек/Всего                               : 15
Исполнитель                              : Dave Joy
Жанр                                     : Trance
Дата записи                              : 2003
Дата пометки                             : UTC 2011-06-19 14:04:11
Обложка                                  : Yes
Примечание                               : Mix Album\Date: 14 April 2003 / Label: Emi Music

Аудио
Идентификатор                            : 1
Формат                                   : ALAC
Идентификатор кодека                     : alac
Идентификатор кодека/Информация          : Apple Lossless Audio Codec
Продолжительность                        : 4 м. 50 с.
Продолжительность оригинала              : 4 м. 50 с.
Source_Duration_LastFrame                : -19 мс.
Вид битрейта                             : Переменный
Битрейт                                  : 916 Кбит/сек
Каналы                                   : 2 канала
Частота                                  : 44,1 КГц
Битовая глубина                          : 16 бит
Размер потока                            : 31,8 Мбайт (100%)
Размер потока оригинала                  : 31,8 Мбайт (100%)
Язык                                     : English
Дата пометки                             : UTC 2011-06-19 14:04:11
mdhd_Duration                            : 290992

Общее
Полное имя                               : C:\2003 - Back 2 Back\CD - 1\06_Joop - Act Of God (Hard Trance Edit).m4a
Формат                                   : MPEG-4
Профиль формата                          : Apple audio with iTunes info
Идентификатор кодека                     : M4A
Размер файла                             : 36,0 Мбайт
Продолжительность                        : 5 м. 28 с.
Режим общего битрейта                    : Переменный
Общий поток                              : 918 Кбит/сек
Альбом                                   : Back 2 Back (CD1)
Альбом/Исполнитель                       : Cosmic Gate
Часть/Положение                          : 1
Часть/Всего                              : 2
Трек                                     : Act Of God (Hard Trance Edit)
Трек/Положение                           : 6
Трек/Всего                               : 15
Исполнитель                              : Joop
Жанр                                     : Trance
Дата записи                              : 2003
Дата пометки                             : UTC 2011-06-19 14:04:31
Обложка                                  : Yes
Примечание                               : Mix Album\Date: 14 April 2003 / Label: Emi Music

Аудио
Идентификатор                            : 1
Формат                                   : ALAC
Идентификатор кодека                     : alac
Идентификатор кодека/Информация          : Apple Lossless Audio Codec
Продолжительность                        : 5 м. 28 с.
Продолжительность оригинала              : 5 м. 28 с.
Source_Duration_LastFrame                : -23 мс.
Вид битрейта                             : Переменный
Битрейт                                  : 915 Кбит/сек
Каналы                                   : 2 канала
Частота                                  : 44,1 КГц
Битовая глубина                          : 16 бит
Размер потока                            : 35,8 Мбайт (100%)
Размер потока оригинала                  : 35,8 Мбайт (100%)
Язык                                     : English
Дата пометки                             : UTC 2011-06-19 14:04:31
mdhd_Duration                            : 328516

Общее
Полное имя                               : C:\2003 - Back 2 Back\CD - 1\07_Saltwater - The Legacy (Clubmix).m4a
Формат                                   : MPEG-4
Профиль формата                          : Apple audio with iTunes info
Идентификатор кодека                     : M4A
Размер файла                             : 39,4 Мбайт
Продолжительность                        : 5 м. 24 с.
Режим общего битрейта                    : Переменный
Общий поток                              : 1018 Кбит/сек
Альбом                                   : Back 2 Back (CD1)
Альбом/Исполнитель                       : Cosmic Gate
Часть/Положение                          : 1
Часть/Всего                              : 2
Трек                                     : The Legacy (Clubmix)
Трек/Положение                           : 7
Трек/Всего                               : 15
Исполнитель                              : Saltwater
Жанр                                     : Trance
Дата записи                              : 2003
Дата пометки                             : UTC 2011-06-19 14:05:07
Обложка                                  : Yes
Примечание                               : Mix Album\Date: 14 April 2003 / Label: Emi Music

Аудио
Идентификатор                            : 1
Формат                                   : ALAC
Идентификатор кодека                     : alac
Идентификатор кодека/Информация          : Apple Lossless Audio Codec
Продолжительность                        : 5 м. 24 с.
Продолжительность оригинала              : 5 м. 24 с.
Source_Duration_LastFrame                : -13 мс.
Вид битрейта                             : Переменный
Битрейт                                  : 1014 Кбит/сек
Каналы                                   : 2 канала
Частота                                  : 44,1 КГц
Битовая глубина                          : 16 бит
Размер потока                            : 39,3 Мбайт (100%)
Размер потока оригинала                  : 39,3 Мбайт (100%)
Язык                                     : English
Дата пометки                             : UTC 2011-06-19 14:05:07
mdhd_Duration                            : 324987

Общее
Полное имя                               : C:\2003 - Back 2 Back\CD - 1\08_Syntone - Can't Believe It (Silverblue Remix).m4a
Формат                                   : MPEG-4
Профиль формата                          : Apple audio with iTunes info
Идентификатор кодека                     : M4A
Размер файла                             : 35,9 Мбайт
Продолжительность                        : 5 м. 28 с.
Режим общего битрейта                    : Переменный
Общий поток                              : 916 Кбит/сек
Альбом                                   : Back 2 Back (CD1)
Альбом/Исполнитель                       : Cosmic Gate
Часть/Положение                          : 1
Часть/Всего                              : 2
Трек                                     : Can't Believe It (Silverblue Remix)
Трек/Положение                           : 8
Трек/Всего                               : 15
Исполнитель                              : Syntone
Жанр                                     : Trance
Дата записи                              : 2003
Дата пометки                             : UTC 2011-06-19 14:05:33
Обложка                                  : Yes
Примечание                               : Mix Album\Date: 14 April 2003 / Label: Emi Music

Аудио
Идентификатор                            : 1
Формат                                   : ALAC
Идентификатор кодека                     : alac
Идентификатор кодека/Информация          : Apple Lossless Audio Codec
Продолжительность                        : 5 м. 28 с.
Продолжительность оригинала              : 5 м. 28 с.
Source_Duration_LastFrame                : -49 мс.
Вид битрейта                             : Переменный
Битрейт                                  : 913 Кбит/сек
Каналы                                   : 2 канала
Частота                                  : 44,1 КГц
Битовая глубина                          : 16 бит
Размер потока                            : 35,7 Мбайт (100%)
Размер потока оригинала                  : 35,7 Мбайт (100%)
Язык                                     : English
Дата пометки                             : UTC 2011-06-19 14:05:33
mdhd_Duration                            : 328516

Общее
Полное имя                               : C:\2003 - Back 2 Back\CD - 1\09_Armani & Ghost - Airport (Essential DJ-Team Remix).m4a
Формат                                   : MPEG-4
Профиль формата                          : Apple audio with iTunes info
Идентификатор кодека                     : M4A
Размер файла                             : 23,3 Мбайт
Продолжительность                        : 3 м. 40 с.
Режим общего битрейта                    : Переменный
Общий поток                              : 886 Кбит/сек
Альбом                                   : Back 2 Back (CD1)
Альбом/Исполнитель                       : Cosmic Gate
Часть/Положение                          : 1
Часть/Всего                              : 2
Трек                                     : Airport (Essential DJ-Team Remix)
Трек/Положение                           : 9
Трек/Всего                               : 15
Исполнитель                              : Armani & Ghost
Жанр                                     : Trance
Дата записи                              : 2003
Дата пометки                             : UTC 2011-06-19 14:04:06
Обложка                                  : Yes
Примечание                               : Mix Album\Date: 14 April 2003 / Label: Emi Music

Аудио
Идентификатор                            : 1
Формат                                   : ALAC
Идентификатор кодека                     : alac
Идентификатор кодека/Информация          : Apple Lossless Audio Codec
Продолжительность                        : 3 м. 40 с.
Продолжительность оригинала              : 3 м. 40 с.
Source_Duration_LastFrame                : -1 мс.
Вид битрейта                             : Переменный
Битрейт                                  : 881 Кбит/сек
Каналы                                   : 2 канала
Частота                                  : 44,1 КГц
Битовая глубина                          : 16 бит
Размер потока                            : 23,2 Мбайт (99%)
Размер потока оригинала                  : 23,2 Мбайт (99%)
Язык                                     : English
Дата пометки                             : UTC 2011-06-19 14:04:06
mdhd_Duration                            : 220961

Общее
Полное имя                               : C:\2003 - Back 2 Back\CD - 1\10_Lambda - Hold On Tight (Kaylab & Reeloop Remix).m4a
Формат                                   : MPEG-4
Профиль формата                          : Apple audio with iTunes info
Идентификатор кодека                     : M4A
Размер файла                             : 32,9 Мбайт
Продолжительность                        : 5 м. 5 с.
Режим общего битрейта                    : Переменный
Общий поток                              : 902 Кбит/сек
Альбом                                   : Back 2 Back (CD1)
Альбом/Исполнитель                       : Cosmic Gate
Часть/Положение                          : 1
Часть/Всего                              : 2
Трек                                     : Hold On Tight (Kaylab & Reeloop Remix)
Трек/Положение                           : 10
Трек/Всего                               : 15
Исполнитель                              : Lambda
Жанр                                     : Trance
Дата записи                              : 2003
Дата пометки                             : UTC 2011-06-19 14:04:35
Обложка                                  : Yes
Примечание                               : Mix Album\Date: 14 April 2003 / Label: Emi Music

Аудио
Идентификатор                            : 1
Формат                                   : ALAC
Идентификатор кодека                     : alac
Идентификатор кодека/Информация          : Apple Lossless Audio Codec
Продолжительность                        : 5 м. 5 с.
Продолжительность оригинала              : 5 м. 5 с.
Source_Duration_LastFrame                : -54 мс.
Вид битрейта                             : Переменный
Битрейт                                  : 898 Кбит/сек
Каналы                                   : 2 канала
Частота                                  : 44,1 КГц
Битовая глубина                          : 16 бит
Размер потока                            : 32,7 Мбайт (100%)
Размер потока оригинала                  : 32,7 Мбайт (100%)
Язык                                     : English
Дата пометки                             : UTC 2011-06-19 14:04:35
mdhd_Duration                            : 305760

Общее
Полное имя                               : C:\2003 - Back 2 Back\CD - 1\11_Igor S - Boomerang (Igor S Mix).m4a
Формат                                   : MPEG-4
Профиль формата                          : Apple audio with iTunes info
Идентификатор кодека                     : M4A
Размер файла                             : 30,4 Мбайт
Продолжительность                        : 4 м. 46 с.
Режим общего битрейта                    : Переменный
Общий поток                              : 888 Кбит/сек
Альбом                                   : Back 2 Back (CD1)
Альбом/Исполнитель                       : Cosmic Gate
Часть/Положение                          : 1
Часть/Всего                              : 2
Трек                                     : Boomerang (Igor S Mix)
Трек/Положение                           : 11
Трек/Всего                               : 15
Исполнитель                              : Igor S
Жанр                                     : Trance
Дата записи                              : 2003
Дата пометки                             : UTC 2011-06-19 14:04:26
Обложка                                  : Yes
Примечание                               : Mix Album\Date: 14 April 2003 / Label: Emi Music

Аудио
Идентификатор                            : 1
Формат                                   : ALAC
Идентификатор кодека                     : alac
Идентификатор кодека/Информация          : Apple Lossless Audio Codec
Продолжительность                        : 4 м. 46 с.
Продолжительность оригинала              : 4 м. 46 с.
Source_Duration_LastFrame                : -80 мс.
Вид битрейта                             : Переменный
Битрейт                                  : 884 Кбит/сек
Каналы                                   : 2 канала
Частота                                  : 44,1 КГц
Битовая глубина                          : 16 бит
Размер потока                            : 30,2 Мбайт (100%)
Размер потока оригинала                  : 30,2 Мбайт (100%)
Язык                                     : English
Дата пометки                             : UTC 2011-06-19 14:04:26
mdhd_Duration                            : 286813

Общее
Полное имя                               : C:\2003 - Back 2 Back\CD - 1\12_Ricky Fobis - No Regular (Original Mix).m4a
Формат                                   : MPEG-4
Профиль формата                          : Apple audio with iTunes info
Идентификатор кодека                     : M4A
Размер файла                             : 33,3 Мбайт
Продолжительность                        : 5 м. 15 с.
Режим общего битрейта                    : Переменный
Общий поток                              : 884 Кбит/сек
Альбом                                   : Back 2 Back (CD1)
Альбом/Исполнитель                       : Cosmic Gate
Часть/Положение                          : 1
Часть/Всего                              : 2
Трек                                     : No Regular (Original Mix)
Трек/Положение                           : 12
Трек/Всего                               : 15
Исполнитель                              : Ricky Fobis
Жанр                                     : Trance
Дата записи                              : 2003
Дата пометки                             : UTC 2011-06-19 14:05:02
Обложка                                  : Yes
Примечание                               : Mix Album\Date: 14 April 2003 / Label: Emi Music

Аудио
Идентификатор                            : 1
Формат                                   : ALAC
Идентификатор кодека                     : alac
Идентификатор кодека/Информация          : Apple Lossless Audio Codec
Продолжительность                        : 5 м. 15 с.
Продолжительность оригинала              : 5 м. 15 с.
Source_Duration_LastFrame                : -32 мс.
Вид битрейта                             : Переменный
Битрейт                                  : 880 Кбит/сек
Каналы                                   : 2 канала
Частота                                  : 44,1 КГц
Битовая глубина                          : 16 бит
Размер потока                            : 33,1 Мбайт (100%)
Размер потока оригинала                  : 33,1 Мбайт (100%)
Язык                                     : English
Дата пометки                             : UTC 2011-06-19 14:05:02
mdhd_Duration                            : 315699

Общее
Полное имя                               : C:\2003 - Back 2 Back\CD - 1\13_Fractal Vibe - C Song (Dynamic Vibe Mix).m4a
Формат                                   : MPEG-4
Профиль формата                          : Apple audio with iTunes info
Идентификатор кодека                     : M4A
Размер файла                             : 31,5 Мбайт
Продолжительность                        : 5 м. 1 с.
Режим общего битрейта                    : Переменный
Общий поток                              : 875 Кбит/сек
Альбом                                   : Back 2 Back (CD1)
Альбом/Исполнитель                       : Cosmic Gate
Часть/Положение                          : 1
Часть/Всего                              : 2
Трек                                     : C Song (Dynamic Vibe Mix)
Трек/Положение                           : 13
Трек/Всего                               : 15
Исполнитель                              : Fractal Vibe
Жанр                                     : Trance
Дата записи                              : 2003
Дата пометки                             : UTC 2011-06-19 14:04:21
Обложка                                  : Yes
Примечание                               : Mix Album\Date: 14 April 2003 / Label: Emi Music

Аудио
Идентификатор                            : 1
Формат                                   : ALAC
Идентификатор кодека                     : alac
Идентификатор кодека/Информация          : Apple Lossless Audio Codec
Продолжительность                        : 5 м. 1 с.
Продолжительность оригинала              : 5 м. 1 с.
Source_Duration_LastFrame                : -59 мс.
Вид битрейта                             : Переменный
Битрейт                                  : 872 Кбит/сек
Каналы                                   : 2 канала
Частота                                  : 44,1 КГц
Битовая глубина                          : 16 бит
Размер потока                            : 31,4 Мбайт (100%)
Размер потока оригинала                  : 31,4 Мбайт (100%)
Язык                                     : English
Дата пометки                             : UTC 2011-06-19 14:04:21
mdhd_Duration                            : 301952

Общее
Полное имя                               : C:\2003 - Back 2 Back\CD - 1\14_Marco V - Echoes (V.ision Mix).m4a
Формат                                   : MPEG-4
Профиль формата                          : Apple audio with iTunes info
Идентификатор кодека                     : M4A
Размер файла                             : 34,9 Мбайт
Продолжительность                        : 5 м. 8 с.
Режим общего битрейта                    : Переменный
Общий поток                              : 948 Кбит/сек
Альбом                                   : Back 2 Back (CD1)
Альбом/Исполнитель                       : Cosmic Gate
Часть/Положение                          : 1
Часть/Всего                              : 2
Трек                                     : Echoes (V.ision Mix)
Трек/Положение                           : 14
Трек/Всего                               : 15
Исполнитель                              : Marco V
Жанр                                     : Trance
Дата записи                              : 2003
Дата пометки                             : UTC 2011-06-19 14:04:47
Обложка                                  : Yes
Примечание                               : Mix Album\Date: 14 April 2003 / Label: Emi Music

Аудио
Идентификатор                            : 1
Формат                                   : ALAC
Идентификатор кодека                     : alac
Идентификатор кодека/Информация          : Apple Lossless Audio Codec
Продолжительность                        : 5 м. 8 с.
Продолжительность оригинала              : 5 м. 8 с.
Source_Duration_LastFrame                : -40 мс.
Вид битрейта                             : Переменный
Битрейт                                  : 945 Кбит/сек
Каналы                                   : 2 канала
Частота                                  : 44,1 КГц
Битовая глубина                          : 16 бит
Размер потока                            : 34,7 Мбайт (100%)
Размер потока оригинала                  : 34,7 Мбайт (100%)
Язык                                     : English
Дата пометки                             : UTC 2011-06-19 14:04:47
mdhd_Duration                            : 308547

Общее
Полное имя                               : C:\2003 - Back 2 Back\CD - 1\15_DJ Delicious - My Beat (Dub Mix).m4a
Формат                                   : MPEG-4
Профиль формата                          : Apple audio with iTunes info
Идентификатор кодека                     : M4A
Размер файла                             : 33,4 Мбайт
Продолжительность                        : 5 м. 2 с.
Режим общего битрейта                    : Переменный
Общий поток                              : 923 Кбит/сек
Альбом                                   : Back 2 Back (CD1)
Альбом/Исполнитель                       : Cosmic Gate
Часть/Положение                          : 1
Часть/Всего                              : 2
Трек                                     : My Beat (Dub Mix)
Трек/Положение                           : 15
Трек/Всего                               : 15
Исполнитель                              : DJ Delicious
Жанр                                     : Trance
Дата записи                              : 2003
Дата пометки                             : UTC 2011-06-19 14:04:16
Обложка                                  : Yes
Примечание                               : Mix Album\Date: 14 April 2003 / Label: Emi Music

Аудио
Идентификатор                            : 1
Формат                                   : ALAC
Идентификатор кодека                     : alac
Идентификатор кодека/Информация          : Apple Lossless Audio Codec
Продолжительность                        : 5 м. 2 с.
Продолжительность оригинала              : 5 м. 2 с.
Source_Duration_LastFrame                : -81 мс.
Вид битрейта                             : Переменный
Битрейт                                  : 920 Кбит/сек
Каналы                                   : 2 канала
Частота                                  : 44,1 КГц
Битовая глубина                          : 16 бит
Размер потока                            : 33,2 Мбайт (100%)
Размер потока оригинала                  : 33,2 Мбайт (100%)
Язык                                     : English
Дата пометки                             : UTC 2011-06-19 14:04:16
mdhd_Duration                            : 302974

Общее
Полное имя                               : C:\2003 - Back 2 Back\CD - 1\Folder.auCDtect.txt
Размер файла                             : 6,82 Кбайт

Общее
Полное имя                               : C:\2003 - Back 2 Back\CD - 2\01_DJ Cor Fijneman feat. Jan Johnston - Venus (Meant To Be Your Lover) (Tiesto Remix).m4a
Формат                                   : MPEG-4
Профиль формата                          : Apple audio with iTunes info
Идентификатор кодека                     : M4A
Размер файла                             : 41,7 Мбайт
Продолжительность                        : 5 м. 59 с.
Режим общего битрейта                    : Переменный
Общий поток                              : 973 Кбит/сек
Альбом                                   : Back 2 Back (CD2)
Альбом/Исполнитель                       : Cosmic Gate
Часть/Положение                          : 2
Часть/Всего                              : 2
Трек                                     : Venus (Meant To Be Your Lover) (Tiesto Remix)
Трек/Положение                           : 1
Трек/Всего                               : 14
Исполнитель                              : DJ Cor Fijneman feat. Jan Johnston
Жанр                                     : Trance
Дата записи                              : 2003
Дата пометки                             : UTC 2011-06-19 14:13:37
Обложка                                  : Yes
Примечание                               : Mix Album\Date: 14 April 2003 / Label: Emi Music

Аудио
Идентификатор                            : 1
Формат                                   : ALAC
Идентификатор кодека                     : alac
Идентификатор кодека/Информация          : Apple Lossless Audio Codec
Продолжительность                        : 5 м. 59 с.
Продолжительность оригинала              : 5 м. 59 с.
Source_Duration_LastFrame                : -31 мс.
Вид битрейта                             : Переменный
Битрейт                                  : 970 Кбит/сек
Каналы                                   : 2 канала
Частота                                  : 44,1 КГц
Битовая глубина                          : 16 бит
Размер потока                            : 41,6 Мбайт (100%)
Размер потока оригинала                  : 41,6 Мбайт (100%)
Язык                                     : English
Дата пометки                             : UTC 2011-06-19 14:13:37
mdhd_Duration                            : 359631

Общее
Полное имя                               : C:\2003 - Back 2 Back\CD - 2\02_Hydra - Affinity (Backbeat Remix).m4a
Формат                                   : MPEG-4
Профиль формата                          : Apple audio with iTunes info
Идентификатор кодека                     : M4A
Размер файла                             : 29,6 Мбайт
Продолжительность                        : 4 м. 35 с.
Режим общего битрейта                    : Переменный
Общий поток                              : 901 Кбит/сек
Альбом                                   : Back 2 Back (CD2)
Альбом/Исполнитель                       : Cosmic Gate
Часть/Положение                          : 2
Часть/Всего                              : 2
Трек                                     : Affinity (Backbeat Remix)
Трек/Положение                           : 2
Трек/Всего                               : 14
Исполнитель                              : Hydra
Жанр                                     : Trance
Дата записи                              : 2003
Дата пометки                             : UTC 2011-06-19 14:13:42
Обложка                                  : Yes
Примечание                               : Mix Album\Date: 14 April 2003 / Label: Emi Music

Аудио
Идентификатор                            : 1
Формат                                   : ALAC
Идентификатор кодека                     : alac
Идентификатор кодека/Информация          : Apple Lossless Audio Codec
Продолжительность                        : 4 м. 35 с.
Продолжительность оригинала              : 4 м. 35 с.
Source_Duration_LastFrame                : -67 мс.
Вид битрейта                             : Переменный
Битрейт                                  : 897 Кбит/сек
Каналы                                   : 2 канала
Частота                                  : 44,1 КГц
Битовая глубина                          : 16 бит
Размер потока                            : 29,5 Мбайт (100%)
Размер потока оригинала                  : 29,5 Мбайт (100%)
Язык                                     : English
Дата пометки                             : UTC 2011-06-19 14:13:42
mdhd_Duration                            : 275667

Общее
Полное имя                               : C:\2003 - Back 2 Back\CD - 2\03_Midway - Inca.m4a
Формат                                   : MPEG-4
Профиль формата                          : Apple audio with iTunes info
Идентификатор кодека                     : M4A
Размер файла                             : 33,8 Мбайт
Продолжительность                        : 5 м. 3 с.
Режим общего битрейта                    : Переменный
Общий поток                              : 936 Кбит/сек
Альбом                                   : Back 2 Back (CD2)
Альбом/Исполнитель                       : Cosmic Gate
Часть/Положение                          : 2
Часть/Всего                              : 2
Трек                                     : Inca
Трек/Положение                           : 3
Трек/Всего                               : 14
Исполнитель                              : Midway
Жанр                                     : Trance
Дата записи                              : 2003
Дата пометки                             : UTC 2011-06-19 14:13:46
Обложка                                  : Yes
Примечание                               : Mix Album\Date: 14 April 2003 / Label: Emi Music

Аудио
Идентификатор                            : 1
Формат                                   : ALAC
Идентификатор кодека                     : alac
Идентификатор кодека/Информация          : Apple Lossless Audio Codec
Продолжительность                        : 5 м. 3 с.
Продолжительность оригинала              : 5 м. 3 с.
Source_Duration_LastFrame                : -26 мс.
Вид битрейта                             : Переменный
Битрейт                                  : 932 Кбит/сек
Каналы                                   : 2 канала
Частота                                  : 44,1 КГц
Битовая глубина                          : 16 бит
Размер потока                            : 33,7 Мбайт (100%)
Размер потока оригинала                  : 33,7 Мбайт (100%)
Язык                                     : English
Дата пометки                             : UTC 2011-06-19 14:13:46
mdhd_Duration                            : 303160

Общее
Полное имя                               : C:\2003 - Back 2 Back\CD - 2\04_NBG - Universal Love (Wippenberg Remix).m4a
Формат                                   : MPEG-4
Профиль формата                          : Apple audio with iTunes info
Идентификатор кодека                     : M4A
Размер файла                             : 40,7 Мбайт
Продолжительность                        : 6 м. 26 с.
Режим общего битрейта                    : Переменный
Общий поток                              : 884 Кбит/сек
Альбом                                   : Back 2 Back (CD2)
Альбом/Исполнитель                       : Cosmic Gate
Часть/Положение                          : 2
Часть/Всего                              : 2
Трек                                     : Universal Love (Wippenberg Remix)
Трек/Положение                           : 4
Трек/Всего                               : 14
Исполнитель                              : NBG
Жанр                                     : Trance
Дата записи                              : 2003
Дата пометки                             : UTC 2011-06-19 14:13:49
Обложка                                  : Yes
Примечание                               : Mix Album\Date: 14 April 2003 / Label: Emi Music

Аудио
Идентификатор                            : 1
Формат                                   : ALAC
Идентификатор кодека                     : alac
Идентификатор кодека/Информация          : Apple Lossless Audio Codec
Продолжительность                        : 6 м. 26 с.
Продолжительность оригинала              : 6 м. 25 с.
Source_Duration_LastFrame                : -75 мс.
Вид битрейта                             : Переменный
Битрейт                                  : 881 Кбит/сек
Каналы                                   : 2 канала
Частота                                  : 44,1 КГц
Битовая глубина                          : 16 бит
Размер потока                            : 40,5 Мбайт (100%)
Размер потока оригинала                  : 40,5 Мбайт (100%)
Язык                                     : English
Дата пометки                             : UTC 2011-06-19 14:13:49
mdhd_Duration                            : 386009

Общее
Полное имя                               : C:\2003 - Back 2 Back\CD - 2\05_Ronald van Gelderen - Proceed (Original Mix).m4a
Формат                                   : MPEG-4
Профиль формата                          : Apple audio with iTunes info
Идентификатор кодека                     : M4A
Размер файла                             : 38,2 Мбайт
Продолжительность                        : 5 м. 37 с.
Режим общего битрейта                    : Переменный
Общий поток                              : 949 Кбит/сек
Альбом                                   : Back 2 Back (CD2)
Альбом/Исполнитель                       : Cosmic Gate
Часть/Положение                          : 2
Часть/Всего                              : 2
Трек                                     : Proceed (Original Mix)
Трек/Положение                           : 5
Трек/Всего                               : 14
Исполнитель                              : Ronald van Gelderen
Жанр                                     : Trance
Дата записи                              : 2003
Дата пометки                             : UTC 2011-06-19 14:13:53
Обложка                                  : Yes
Примечание                               : Mix Album\Date: 14 April 2003 / Label: Emi Music

Аудио
Идентификатор                            : 1
Формат                                   : ALAC
Идентификатор кодека                     : alac
Идентификатор кодека/Информация          : Apple Lossless Audio Codec
Продолжительность                        : 5 м. 37 с.
Продолжительность оригинала              : 5 м. 37 с.
Source_Duration_LastFrame                : -32 мс.
Вид битрейта                             : Переменный
Битрейт                                  : 946 Кбит/сек
Каналы                                   : 2 канала
Частота                                  : 44,1 КГц
Битовая глубина                          : 16 бит
Размер потока                            : 38,1 Мбайт (100%)
Размер потока оригинала                  : 38,1 Мбайт (100%)
Язык                                     : English
Дата пометки                             : UTC 2011-06-19 14:13:53
mdhd_Duration                            : 337525

Общее
Полное имя                               : C:\2003 - Back 2 Back\CD - 2\06_Cosmic Gate feat. Jan Johnston - Raging (Flutlicht Vocal Mix).m4a
Формат                                   : MPEG-4
Профиль формата                          : Apple audio with iTunes info
Идентификатор кодека                     : M4A
Размер файла                             : 37,9 Мбайт
Продолжительность                        : 5 м. 28 с.
Режим общего битрейта                    : Переменный
Общий поток                              : 969 Кбит/сек
Альбом                                   : Back 2 Back (CD2)
Альбом/Исполнитель                       : Cosmic Gate
Часть/Положение                          : 2
Часть/Всего                              : 2
Трек                                     : Raging (Flutlicht Vocal Mix)
Трек/Положение                           : 6
Трек/Всего                               : 14
Исполнитель                              : Cosmic Gate feat. Jan Johnston
Жанр                                     : Trance
Дата записи                              : 2003
Дата пометки                             : UTC 2011-06-19 14:13:57
Обложка                                  : Yes
Примечание                               : Mix Album\Date: 14 April 2003 / Label: Emi Music

Аудио
Идентификатор                            : 1
Формат                                   : ALAC
Идентификатор кодека                     : alac
Идентификатор кодека/Информация          : Apple Lossless Audio Codec
Продолжительность                        : 5 м. 28 с.
Продолжительность оригинала              : 5 м. 28 с.
Source_Duration_LastFrame                : -9 мс.
Вид битрейта                             : Переменный
Битрейт                                  : 966 Кбит/сек
Каналы                                   : 2 канала
Частота                                  : 44,1 КГц
Битовая глубина                          : 16 бит
Размер потока                            : 37,8 Мбайт (100%)
Размер потока оригинала                  : 37,8 Мбайт (100%)
Язык                                     : English
Дата пометки                             : UTC 2011-06-19 14:13:57
mdhd_Duration                            : 328516

Общее
Полное имя                               : C:\2003 - Back 2 Back\CD - 2\07_Human Evolution - Project Magneta (One Small Step For A Man Mix).m4a
Формат                                   : MPEG-4
Профиль формата                          : Apple audio with iTunes info
Идентификатор кодека                     : M4A
Размер файла                             : 33,8 Мбайт
Продолжительность                        : 5 м. 10 с.
Режим общего битрейта                    : Переменный
Общий поток                              : 913 Кбит/сек
Альбом                                   : Back 2 Back (CD2)
Альбом/Исполнитель                       : Cosmic Gate
Часть/Положение                          : 2
Часть/Всего                              : 2
Трек                                     : Project Magneta (One Small Step For A Man Mix)
Трек/Положение                           : 7
Трек/Всего                               : 14
Исполнитель                              : Human Evolution
Жанр                                     : Trance
Дата записи                              : 2003
Дата пометки                             : UTC 2011-06-19 14:14:00
Обложка                                  : Yes
Примечание                               : Mix Album\Date: 14 April 2003 / Label: Emi Music

Аудио
Идентификатор                            : 1
Формат                                   : ALAC
Идентификатор кодека                     : alac
Идентификатор кодека/Информация          : Apple Lossless Audio Codec
Продолжительность                        : 5 м. 10 с.
Продолжительность оригинала              : 5 м. 10 с.
Source_Duration_LastFrame                : -30 мс.
Вид битрейта                             : Переменный
Битрейт                                  : 909 Кбит/сек
Каналы                                   : 2 канала
Частота                                  : 44,1 КГц
Битовая глубина                          : 16 бит
Размер потока                            : 33,7 Мбайт (100%)
Размер потока оригинала                  : 33,7 Мбайт (100%)
Язык                                     : English
Дата пометки                             : UTC 2011-06-19 14:14:00
mdhd_Duration                            : 310590

Общее
Полное имя                               : C:\2003 - Back 2 Back\CD - 2\08_The Matrix - Protect The Innocent (CreamTeam Remix).m4a
Формат                                   : MPEG-4
Профиль формата                          : Apple audio with iTunes info
Идентификатор кодека                     : M4A
Размер файла                             : 41,2 Мбайт
Продолжительность                        : 6 м. 10 с.
Режим общего битрейта                    : Переменный
Общий поток                              : 933 Кбит/сек
Альбом                                   : Back 2 Back (CD2)
Альбом/Исполнитель                       : Cosmic Gate
Часть/Положение                          : 2
Часть/Всего                              : 2
Трек                                     : Protect The Innocent (CreamTeam Remix)
Трек/Положение                           : 8
Трек/Всего                               : 14
Исполнитель                              : The Matrix
Жанр                                     : Trance
Дата записи                              : 2003
Дата пометки                             : UTC 2011-06-19 14:14:04
Обложка                                  : Yes
Примечание                               : Mix Album\Date: 14 April 2003 / Label: Emi Music

Аудио
Идентификатор                            : 1
Формат                                   : ALAC
Идентификатор кодека                     : alac
Идентификатор кодека/Информация          : Apple Lossless Audio Codec
Продолжительность                        : 6 м. 10 с.
Продолжительность оригинала              : 6 м. 10 с.
Source_Duration_LastFrame                : -43 мс.
Вид битрейта                             : Переменный
Битрейт                                  : 930 Кбит/сек
Каналы                                   : 2 канала
Частота                                  : 44,1 КГц
Битовая глубина                          : 16 бит
Размер потока                            : 41,1 Мбайт (100%)
Размер потока оригинала                  : 41,1 Мбайт (100%)
Язык                                     : English
Дата пометки                             : UTC 2011-06-19 14:14:04
mdhd_Duration                            : 370776

Общее
Полное имя                               : C:\2003 - Back 2 Back\CD - 2\09_Carlo Resoort - Remover (Club Mix).m4a
Формат                                   : MPEG-4
Профиль формата                          : Apple audio with iTunes info
Идентификатор кодека                     : M4A
Размер файла                             : 29,0 Мбайт
Продолжительность                        : 4 м. 48 с.
Режим общего битрейта                    : Переменный
Общий поток                              : 843 Кбит/сек
Альбом                                   : Back 2 Back (CD2)
Альбом/Исполнитель                       : Cosmic Gate
Часть/Положение                          : 2
Часть/Всего                              : 2
Трек                                     : Remover (Club Mix)
Трек/Положение                           : 9
Трек/Всего                               : 14
Исполнитель                              : Carlo Resoort
Жанр                                     : Trance
Дата записи                              : 2003
Дата пометки                             : UTC 2011-06-19 14:14:08
Обложка                                  : Yes
Примечание                               : Mix Album\Date: 14 April 2003 / Label: Emi Music

Аудио
Идентификатор                            : 1
Формат                                   : ALAC
Идентификатор кодека                     : alac
Идентификатор кодека/Информация          : Apple Lossless Audio Codec
Продолжительность                        : 4 м. 48 с.
Продолжительность оригинала              : 4 м. 48 с.
Source_Duration_LastFrame                : -32 мс.
Вид битрейта                             : Переменный
Битрейт                                  : 839 Кбит/сек
Каналы                                   : 2 канала
Частота                                  : 44,1 КГц
Битовая глубина                          : 16 бит
Размер потока                            : 28,8 Мбайт (100%)
Размер потока оригинала                  : 28,8 Мбайт (100%)
Язык                                     : English
Дата пометки                             : UTC 2011-06-19 14:14:08
mdhd_Duration                            : 288299

Общее
Полное имя                               : C:\2003 - Back 2 Back\CD - 2\10_The Freak - The Melody, The Sound (Flutlicht Remix).m4a
Формат                                   : MPEG-4
Профиль формата                          : Apple audio with iTunes info
Идентификатор кодека                     : M4A
Размер файла                             : 29,7 Мбайт
Продолжительность                        : 4 м. 20 с.
Режим общего битрейта                    : Переменный
Общий поток                              : 956 Кбит/сек
Альбом                                   : Back 2 Back (CD2)
Альбом/Исполнитель                       : Cosmic Gate
Часть/Положение                          : 2
Часть/Всего                              : 2
Трек                                     : The Melody, The Sound (Flutlicht Remix)
Трек/Положение                           : 10
Трек/Всего                               : 14
Исполнитель                              : The Freak
Жанр                                     : Trance
Дата записи                              : 2003
Дата пометки                             : UTC 2011-06-19 14:14:11
Обложка                                  : Yes
Примечание                               : Mix Album\Date: 14 April 2003 / Label: Emi Music

Аудио
Идентификатор                            : 1
Формат                                   : ALAC
Идентификатор кодека                     : alac
Идентификатор кодека/Информация          : Apple Lossless Audio Codec
Продолжительность                        : 4 м. 20 с.
Продолжительность оригинала              : 4 м. 20 с.
Source_Duration_LastFrame                : -9 мс.
Вид битрейта                             : Переменный
Битрейт                                  : 952 Кбит/сек
Каналы                                   : 2 канала
Частота                                  : 44,1 КГц
Битовая глубина                          : 16 бит
Размер потока                            : 29,5 Мбайт (100%)
Размер потока оригинала                  : 29,5 Мбайт (100%)
Язык                                     : English
Дата пометки                             : UTC 2011-06-19 14:14:11
mdhd_Duration                            : 260249

Общее
Полное имя                               : C:\2003 - Back 2 Back\CD - 2\11_Pale-X - Hibernation (Original Version).m4a
Формат                                   : MPEG-4
Профиль формата                          : Apple audio with iTunes info
Идентификатор кодека                     : M4A
Размер файла                             : 34,9 Мбайт
Продолжительность                        : 5 м. 42 с.
Режим общего битрейта                    : Переменный
Общий поток                              : 854 Кбит/сек
Альбом                                   : Back 2 Back (CD2)
Альбом/Исполнитель                       : Cosmic Gate
Часть/Положение                          : 2
Часть/Всего                              : 2
Трек                                     : Hibernation (Original Version)
Трек/Положение                           : 11
Трек/Всего                               : 14
Исполнитель                              : Pale-X
Жанр                                     : Trance
Дата записи                              : 2003
Дата пометки                             : UTC 2011-06-19 14:14:15
Обложка                                  : Yes
Примечание                               : Mix Album\Date: 14 April 2003 / Label: Emi Music

Аудио
Идентификатор                            : 1
Формат                                   : ALAC
Идентификатор кодека                     : alac
Идентификатор кодека/Информация          : Apple Lossless Audio Codec
Продолжительность                        : 5 м. 42 с.
Продолжительность оригинала              : 5 м. 42 с.
Source_Duration_LastFrame                : -88 мс.
Вид битрейта                             : Переменный
Битрейт                                  : 851 Кбит/сек
Каналы                                   : 2 канала
Частота                                  : 44,1 КГц
Битовая глубина                          : 16 бит
Размер потока                            : 34,7 Мбайт (100%)
Размер потока оригинала                  : 34,7 Мбайт (100%)
Язык                                     : English
Дата пометки                             : UTC 2011-06-19 14:14:15
mdhd_Duration                            : 342355

Общее
Полное имя                               : C:\2003 - Back 2 Back\CD - 2\12_DJ Choose pres. That Mucho - Release Me.m4a
Формат                                   : MPEG-4
Профиль формата                          : Apple audio with iTunes info
Идентификатор кодека                     : M4A
Размер файла                             : 27,4 Мбайт
Продолжительность                        : 3 м. 58 с.
Режим общего битрейта                    : Переменный
Общий поток                              : 965 Кбит/сек
Альбом                                   : Back 2 Back (CD2)
Альбом/Исполнитель                       : Cosmic Gate
Часть/Положение                          : 2
Часть/Всего                              : 2
Трек                                     : Release Me
Трек/Положение                           : 12
Трек/Всего                               : 14
Исполнитель                              : DJ Choose pres. That Mucho
Жанр                                     : Trance
Дата записи                              : 2003
Дата пометки                             : UTC 2011-06-19 14:14:18
Обложка                                  : Yes
Примечание                               : Mix Album\Date: 14 April 2003 / Label: Emi Music

Аудио
Идентификатор                            : 1
Формат                                   : ALAC
Идентификатор кодека                     : alac
Идентификатор кодека/Информация          : Apple Lossless Audio Codec
Продолжительность                        : 3 м. 58 с.
Продолжительность оригинала              : 3 м. 58 с.
Source_Duration_LastFrame                : -36 мс.
Вид битрейта                             : Переменный
Битрейт                                  : 961 Кбит/сек
Каналы                                   : 2 канала
Частота                                  : 44,1 КГц
Битовая глубина                          : 16 бит
Размер потока                            : 27,3 Мбайт (100%)
Размер потока оригинала                  : 27,3 Мбайт (100%)
Язык                                     : English
Дата пометки                             : UTC 2011-06-19 14:14:18
mdhd_Duration                            : 238330

Общее
Полное имя                               : C:\2003 - Back 2 Back\CD - 2\13_Cosmic Gate - Human Beings (G&M Project Remix).m4a
Формат                                   : MPEG-4
Профиль формата                          : Apple audio with iTunes info
Идентификатор кодека                     : M4A
Размер файла                             : 38,7 Мбайт
Продолжительность                        : 5 м. 46 с.
Режим общего битрейта                    : Переменный
Общий поток                              : 937 Кбит/сек
Альбом                                   : Back 2 Back (CD2)
Альбом/Исполнитель                       : Cosmic Gate
Часть/Положение                          : 2
Часть/Всего                              : 2
Трек                                     : Human Beings (G&M Project Remix)
Трек/Положение                           : 13
Трек/Всего                               : 14
Исполнитель                              : Cosmic Gate
Жанр                                     : Trance
Дата записи                              : 2003
Дата пометки                             : UTC 2011-06-19 14:14:22
Обложка                                  : Yes
Примечание                               : Mix Album\Date: 14 April 2003 / Label: Emi Music

Аудио
Идентификатор                            : 1
Формат                                   : ALAC
Идентификатор кодека                     : alac
Идентификатор кодека/Информация          : Apple Lossless Audio Codec
Продолжительность                        : 5 м. 46 с.
Продолжительность оригинала              : 5 м. 46 с.
Source_Duration_LastFrame                : -13 мс.
Вид битрейта                             : Переменный
Битрейт                                  : 934 Кбит/сек
Каналы                                   : 2 канала
Частота                                  : 44,1 КГц
Битовая глубина                          : 16 бит
Размер потока                            : 38,6 Мбайт (100%)
Размер потока оригинала                  : 38,6 Мбайт (100%)
Язык                                     : English
Дата пометки                             : UTC 2011-06-19 14:14:22
mdhd_Duration                            : 346813

Общее
Полное имя                               : C:\2003 - Back 2 Back\CD - 2\14_E-Craig - Drum Beats (E-Craig Hard Dub Mix).m4a
Формат                                   : MPEG-4
Профиль формата                          : Apple audio with iTunes info
Идентификатор кодека                     : M4A
Размер файла                             : 27,2 Мбайт
Продолжительность                        : 4 м. 34 с.
Режим общего битрейта                    : Переменный
Общий поток                              : 832 Кбит/сек
Альбом                                   : Back 2 Back (CD2)
Альбом/Исполнитель                       : Cosmic Gate
Часть/Положение                          : 2
Часть/Всего                              : 2
Трек                                     : Drum Beats (E-Craig Hard Dub Mix)
Трек/Положение                           : 14
Трек/Всего                               : 14
Исполнитель                              : E-Craig
Жанр                                     : Trance
Дата записи                              : 2003
Дата пометки                             : UTC 2011-06-19 14:14:25
Обложка                                  : Yes
Примечание                               : Mix Album\Date: 14 April 2003 / Label: Emi Music

Аудио
Идентификатор                            : 1
Формат                                   : ALAC
Идентификатор кодека                     : alac
Идентификатор кодека/Информация          : Apple Lossless Audio Codec
Продолжительность                        : 4 м. 34 с.
Продолжительность оригинала              : 4 м. 34 с.
Source_Duration_LastFrame                : -18 мс.
Вид битрейта                             : Переменный
Битрейт                                  : 828 Кбит/сек
Каналы                                   : 2 канала
Частота                                  : 44,1 КГц
Битовая глубина                          : 16 бит
Размер потока                            : 27,1 Мбайт (100%)
Размер потока оригинала                  : 27,1 Мбайт (100%)
Язык                                     : English
Дата пометки                             : UTC 2011-06-19 14:14:25
mdhd_Duration                            : 274831

Общее
Полное имя                               : C:\2003 - Back 2 Back\CD - 2\Folder.auCDtect.txt
Размер файла                             : 6,58 Кбайт
Время раздачи: 24/7 (круглосуточно) - до первых 10-ти сидов
[NNM-Club.me]_2003 - Back 2 Back.torrent
 Торрент: Платиновая раздача  Зарегистрирован
 
Скачать


Примагнититься
 Зарегистрирован:   16 Авг 2013 10:19:29
 Размер:   966 MB  (
 Рейтинг:   4.9 (Голосов: 13)
 Поблагодарили:   32
 Проверка:   Оформление проверено модератором 17 Авг 2013 00:34:45
Как cкачать  ·  Как раздать  ·  Правильно оформить  ·  Поднять ратио!  
sseless ®
Меломан, Реставратор
Стаж: 9 лет
Сообщений: 3542
Ratio: 1386.827
Раздал: 45.33 TB
Поблагодарили: 160424
100%
north_korea.gif
классика транса, не мог не поделится! :умничает:
Юка
Стаж: 10 лет 9 мес.
Сообщений: 402
Ratio: 11.926
100%
о да!! спасибо! :))
mkdemon2
Стаж: 7 лет 1 мес.
Сообщений: 139
Ratio: 1.462
Поблагодарили: 1063
100%
Тащусь от парней... особенно от ранних изданий.. Остальное - скатились до попсы и обычного заработка.
Показать сообщения:   
Начать новую тему   Ответить на тему    Торрент-трекер NNM-Club -> Аудио и Видео -> Музыка Lossless (ALAC) Часовой пояс: GMT + 3
Страница 1 из 1