Классический форум-трекер
canvas not supported
Нас вместе: 4 233 109

Гуманоиды в Королёве (2008) DVDRip [Сезон 1, 20 серий из 20]


 
 
RSS
Начать новую тему   Ответить на тему    Торрент-трекер NNM-Club -> Отечественные сериалы
Автор Сообщение
smpeal ®
Стаж: 11 лет 9 мес.
Сообщений: 62
Ratio: 99.87
Поблагодарили: 7340
100%
ussr.gif
Гуманоиды в Королёве (2008) DVDRip [Сезон 1, 20 серий из 20]
Год выпуска: 2008
Жанр: Комедия


Дата российской премьеры: 12 мая 2008
Дата выхода DVD/Blu-Ray релиза: 23 сентября 2008

Режиссеры: Андрей Кузнецов, Эдуард Радзюкевич
Актеры: Валерий Гаркалин, Анастасия Шунина-Махонина, Сергей Мелконян, Дмитрий Никулин, Татьяна Васильева, Сергей Лобынцев, Роман Печерский, Наталья Селиверстова, Маргарита Мовсесян, Кирилл Болтаев

Описание фильма:
Их четверо. Они прилетели с другой планеты исследовать нас, своих младших братьев по разуму. За несколько месяцев им предстоит разгадать то, на что нам не хватило тысячелетий. Зачем нужна любовь, кто виноват, что делать, едят ли курицу руками и играют ли на гитаре ногами. Вселившись в человеческие тела обыкновенной семьи Беловых, они разучились читать мысли друг друга, поворачивать голову на 360 градусов и размножаться нультранспортировкой дезоксирибонуклеиновой кислоты. Зато теперь они похожи на нас.

Но в мире людей они чувствуют себя не в своей тарелке. Не знают правил этикета, буквально понимают образные выражения и не умеют пользоваться электроприборами. Пришельцы рискуют рассекретить свою миссию. Если, конечно, раньше на них не нападет желеобразный инопланетный ирод. Это главное, чего они боятся.

Продолжительность: 20 x ~00:23:30
Качество видео: DVDRip
Видеокодек: Xvid
Битрейт видео: 1490 Kbps
Размер кадра: 640х464
Аудиокодек: AC3
Битрейт аудио: 256 Kbps, 2 канала
«Гуманоиды в Королёве» созданы по мотивам американского комедийного сериала «Третья планета от Cолнца».
Все релизы "Третья планета от Солнца" на NNM-Club
Все релизы "Гуманоидов" на NNM-Club
01. Полный прилет
02. Первое свидание
03. Мои года - мое богатство
04. Будьте здоровы!
05. Бедные люди
06. Давай закурим
07. Взятки гладки
08. Бесконечная история любви
09. Разлука ты, разлука
10. И ты, брат!
11. Правдивая ложь
12. Заклятый друг
13. Элвис – жив!
14. Дети разных народов
15. Ах, какая женщина
16. Держи вора!
17. Секретный связной
18. Кабинетные игры
19. Незваный гость
20. Атака клона
Общее
Полное имя : Z:\Отечественные сериалы\Гуманоиды в Королёве (2008, 1-20 серии) DVDRip\01 серия.avi
Формат : AVI
Формат/Информация : Audio Video Interleave
Размер файла : 292 Мбайт
Продолжительность : 23 м.
Общий поток : 1756 Кбит/сек
Программа кодирования : VirtualDubModRus 1.5.10.2 (build 2542/release)
Библиотека кодирования : VirtualDubMod build 2542/release

Видео
Идентификатор : 0
Формат : MPEG-4 Visual
Профиль формата : Advanced Simple@L5
Параметр BVOP формата : 2
Параметр QPel формата : Нет
Параметр GMC формата : Без точки перехода
Параметр матрицы формата : Default (H.263)
Режим смешивания : Сжатый битовый поток
Идентификатор кодека : XVID
Идентификатор кодека/Подсказка : XviD
Продолжительность : 23 м.
Битрейт : 1490 Кбит/сек
Ширина : 640 пикселей
Высота : 464 пикселя
Соотношение сторон : 1,379
Частота кадров : 25,000 кадров/сек
Цветовое пространство : YUV
Субдискретизация насыщенности : 4:2:0
Битовая глубина : 8 бит
Тип развёртки : Прогрессивная
Метод сжатия : С потерями
Бит/(Пиксели*Кадры) : 0.201
Размер потока : 248 Мбайт (85%)
Библиотека кодирования : XviD 64

Аудио
Идентификатор : 1
Формат : AC-3
Формат/Информация : Audio Coding 3
Расширение режима : CM (complete main)
Параметр Endianness формата : Big
Идентификатор кодека : 2000
Продолжительность : 23 м.
Вид битрейта : Постоянный
Битрейт : 256 Кбит/сек
Каналы : 2 канала
Расположение каналов : Front: L R
Частота : 48,0 КГц
Битовая глубина : 16 бит
Метод сжатия : С потерями
Размер потока : 42,6 Мбайт (15%)
Выравнивание : Разделение по промежуткам
Продолжительность промежутка : 40 мс. (1,00 видеокадр)
Время предзагрузки промежутка : 500 мс
Скриншоты:

Время раздачи: По выходным с 12 до 24, иногда в будни вечером
[NNM-Club.me]_Gumanoidy_v_Koroljove_2008_1-20_DVDRip.avi.torrent
 Торрент: Платиновая раздача  Зарегистрирован
 
Скачать


Примагнититься
 Зарегистрирован:   17 Авг 2013 22:30:39
 Размер:   5.84 GB  (
 Рейтинг:   3.7 (Голосов: 17)
 Поблагодарили:   50
 Проверка:   Оформление проверено модератором 19 Авг 2013 01:04:27
Как cкачать  ·  Как раздать  ·  Правильно оформить  ·  Поднять ратио!  
Показать сообщения:   
Начать новую тему   Ответить на тему    Торрент-трекер NNM-Club -> Отечественные сериалы Часовой пояс: GMT + 3
Страница 1 из 1