Классический форум-трекер
canvas not supported
Нас вместе: 4 233 609

Адвокат дьявола / The Devil's Advocate (1997) BDRip [576p] iPad


 
 
RSS
Начать новую тему   Ответить на тему    Торрент-трекер NNM-Club -> Аудио и Видео -> Зарубежное видео для устройств Apple
Автор Сообщение
shax87 ®
Стаж: 13 лет 1 мес.
Сообщений: 215
Ratio: 446.069
Раздал: 25.16 TB
Поблагодарили: 18020
100%
Откуда: Санкт-Петербург
russia.gif
Адвокат дьявола / The Devil's Advocate (1997) BDRip [576p] iPad
Русское название: Адвокат дьявола
Оригинальное название: The Devil's Advocate
Год: 1997
Страна: США, Германия
Жанр: триллер, драма, детектив

Продолжительность: 02:23:55
Перевод: Профессиональный дублированный
Оригинальная аудиодорожка: английская
Субтитры: нет
Навигация по главам: есть

Режиссёр: Тейлор Хэкфорд
Сценарий: Джонатан Лемкин, Тони Гилрой, Эндрю Нейдерман
В ролях: Киану Ривз, Аль Пачино, Шарлиз Терон, Джеффри Джонс, Джудит Айви, Конни Нильсен, Крэйг Т. Нельсон, Тамара Тюни, Рубен Сантьяго-Хадсон, Дебра Монк

Описание: В Нью-Йорк по приглашению главы крупного юридического концерна прибывает Кевин Ломакс, молодой адвокат. До этого он был известен тем, что защищал исключительно негодяев и притом не проиграл ни одного процесса. На новом месте работы он вполне счастлив, он живет в роскошной квартире с любящей женой, его окружают интересные люди…



Качество видео: BDRip
Исходник: BDRemux
Формат: MP4 (контейнер m4v)
Видео: AVC, 1024x424 (2.40:1) at 23.976 fps, AVC at 2064 kbps avg, 0.198 bit/pixel
Аудио: 48 kHz, AAC, 2ch, 128 Kbps | Russian | Дублированный
Аудио: 48 kHz, AAC, 2ch, 128 Kbps | Russian | Многоголосый, закадровый (Карусель)
Аудио: 48 kHz, AAC, 2ch, 128 Kbps | Russian | Многоголосый, закадровый (НТВ)
Аудио: 48 kHz, AAC, 2ch, 128 Kbps | Russian | Многоголосый, закадровый (Телеканал Россия)
Аудио: 48 kHz, AAC, 2ch, 128 Kbps | Ukrainian | Многоголосый, закадровый (1+1)
Аудио: 48 kHz, AAC, 2ch, 128 Kbps | English | Original
Общее
Полное имя : F:\Downloads\The Devil's Advocate.1997.BDRip.iPad.m4v
Формат : MPEG-4
Профиль формата : Base Media / Version 2
Идентификатор кодека : mp42
Размер файла : 2,88 Гбайт
Продолжительность : 2 ч. 23 м.
Режим общего битрейта : Переменный
Общий поток : 2861 Кбит/сек
Название фильма : Адвокат дьявола / The Devil's Advocate
Исполнитель : Тейлор Хэкфорд
Жанр : триллер, драма, детектив
Дата записи : UTC 1997-10-17 07:00:00
Дата кодирования : UTC 2013-07-26 06:55:17
Дата пометки : UTC 2013-08-12 09:53:10
Программа кодирования : HandBrake 0.9.8 2012071700

Видео
Идентификатор : 1
Формат : AVC
Формат/Информация : Advanced Video Codec
Профиль формата : High@L3.1
Параметр CABAC формата : Да
Параметр ReFrames формата : 8 кадров
Идентификатор кодека : avc1
Идентификатор кодека/Информация : Advanced Video Coding
Продолжительность : 2 ч. 23 м.
Вид битрейта : Переменный
Битрейт : 2064 Кбит/сек
Ширина : 1024 пикселя
Высота : 424 пикселя
Соотношение сторон : 2,40:1
Режим частоты кадров : Переменный
Частота кадров : 23,976 кадра/сек
Минимальная частота кадров : 23,974 кадра/сек
Максимальная частота кадров : 23,981 кадра/сек
Цветовое пространство : YUV
Субдискретизация насыщенности : 4:2:0
Битовая глубина : 8 бит
Тип развёртки : Прогрессивная
Бит/(Пиксели*Кадры) : 0.198
Размер потока : 2,07 Гбайт (72%)
Библиотека кодирования : x264 core 120
Настройки программы : cabac=1 / ref=9 / deblock=1:-1:-1 / analyse=0x3:0x133 / me=umh / subme=9 / psy=1 / psy_rd=1.00:0.15 / mixed_ref=1 / me_range=32 / chroma_me=1 / trellis=2 / 8x8dct=1 / cqm=0 / deadzone=21,11 / fast_pskip=1 / chroma_qp_offset=-3 / threads=6 / sliced_threads=0 / nr=0 / decimate=1 / interlaced=0 / bluray_compat=0 / constrained_intra=0 / bframes=9 / b_pyramid=1 / b_adapt=2 / b_bias=0 / direct=1 / weightb=1 / open_gop=0 / weightp=2 / keyint=240 / keyint_min=24 / scenecut=40 / intra_refresh=0 / rc_lookahead=40 / rc=crf / mbtree=1 / crf=18.0 / qcomp=0.60 / qpmin=3 / qpmax=69 / qpstep=4 / ip_ratio=1.40 / aq=1:0.90
Дата кодирования : UTC 2013-07-26 06:55:17
Дата пометки : UTC 2013-07-26 11:37:37
Основные цвета : BT.709
Характеристики трансфера : BT.709
Коэффициенты матрицы : BT.709

Аудио #1
Идентификатор : 2
Формат : AAC
Формат/Информация : Advanced Audio Codec
Профиль формата : LC
Идентификатор кодека : 40
Продолжительность : 2 ч. 23 м.
Вид битрейта : Переменный
Битрейт : 128 Кбит/сек
Максимальный битрейт : 258 Кбит/сек
Каналы : 2 канала
Расположение каналов : Front: L R
Частота : 48,0 КГц
Метод сжатия : С потерями
Задержка видео : 83 мс.
Размер потока : 132 Мбайт (4%)
Язык : Russian
Дата кодирования : UTC 2013-07-26 06:55:17
Дата пометки : UTC 2013-07-26 11:37:36

Аудио #2
Идентификатор : 3
Формат : AAC
Формат/Информация : Advanced Audio Codec
Профиль формата : LC
Идентификатор кодека : 40
Продолжительность : 2 ч. 23 м.
Вид битрейта : Переменный
Битрейт : 128 Кбит/сек
Максимальный битрейт : 252 Кбит/сек
Каналы : 2 канала
Расположение каналов : Front: L R
Частота : 48,0 КГц
Метод сжатия : С потерями
Задержка видео : 83 мс.
Размер потока : 132 Мбайт (4%)
Язык : Russian
Дата кодирования : UTC 2013-07-26 06:55:17
Дата пометки : UTC 2013-07-26 11:37:36

Аудио #3
Идентификатор : 4
Формат : AAC
Формат/Информация : Advanced Audio Codec
Профиль формата : LC
Идентификатор кодека : 40
Продолжительность : 2 ч. 23 м.
Вид битрейта : Переменный
Битрейт : 128 Кбит/сек
Максимальный битрейт : 156 Кбит/сек
Каналы : 2 канала
Расположение каналов : Front: L R
Частота : 48,0 КГц
Метод сжатия : С потерями
Задержка видео : 83 мс.
Размер потока : 132 Мбайт (4%)
Язык : Russian
Дата кодирования : UTC 2013-07-26 06:55:17
Дата пометки : UTC 2013-07-26 11:37:36

Аудио #4
Идентификатор : 5
Формат : AAC
Формат/Информация : Advanced Audio Codec
Профиль формата : LC
Идентификатор кодека : 40
Продолжительность : 2 ч. 23 м.
Вид битрейта : Переменный
Битрейт : 128 Кбит/сек
Максимальный битрейт : 158 Кбит/сек
Каналы : 2 канала
Расположение каналов : Front: L R
Частота : 48,0 КГц
Метод сжатия : С потерями
Задержка видео : 83 мс.
Размер потока : 132 Мбайт (4%)
Язык : Russian
Дата кодирования : UTC 2013-07-26 06:55:17
Дата пометки : UTC 2013-07-26 11:37:36

Аудио #5
Идентификатор : 6
Формат : AAC
Формат/Информация : Advanced Audio Codec
Профиль формата : LC
Идентификатор кодека : 40
Продолжительность : 2 ч. 23 м.
Вид битрейта : Переменный
Битрейт : 128 Кбит/сек
Максимальный битрейт : 241 Кбит/сек
Каналы : 2 канала
Расположение каналов : Front: L R
Частота : 48,0 КГц
Метод сжатия : С потерями
Задержка видео : 83 мс.
Размер потока : 132 Мбайт (4%)
Язык : Ukrainian
Дата кодирования : UTC 2013-07-26 06:55:17
Дата пометки : UTC 2013-07-26 11:37:36

Аудио #6
Идентификатор : 7
Формат : AAC
Формат/Информация : Advanced Audio Codec
Профиль формата : LC
Идентификатор кодека : 40
Продолжительность : 2 ч. 23 м.
Вид битрейта : Переменный
Битрейт : 128 Кбит/сек
Максимальный битрейт : 252 Кбит/сек
Каналы : 2 канала
Расположение каналов : Front: L R
Частота : 48,0 КГц
Метод сжатия : С потерями
Задержка видео : 83 мс.
Размер потока : 132 Мбайт (4%)
Язык : English
Дата кодирования : UTC 2013-07-26 06:55:17
Дата пометки : UTC 2013-07-26 11:37:36

Текст
Идентификатор : 9
Формат : Apple text
Идентификатор кодека : text
Продолжительность : 2 ч. 23 м.
Вид битрейта : Переменный
Битрейт : 1 бит/сек
Задержка видео : 83 мс.
Размер потока : 1023 байт (0%)
Дата кодирования : UTC 2013-08-12 09:53:10
Дата пометки : UTC 2013-08-12 09:53:10
x264 [info]: frame I:2021 Avg QP:14.80 size: 72349
x264 [info]: frame P:41514 Avg QP:18.44 size: 23839
x264 [info]: frame B:163514 Avg QP:21.40 size: 6678
x264 [info]: consecutive B-frames: 1.7% 1.6% 4.7% 20.2% 18.9% 35.2% 8.6% 5.0% 2.3% 1.8%
x264 [info]: mb I I16..4: 10.8% 66.7% 22.5%
x264 [info]: mb P I16..4: 2.0% 10.5% 1.6% P16..4: 39.3% 19.4% 14.8% 1.6% 0.6% skip:10.3%
x264 [info]: mb B I16..4: 0.1% 0.9% 0.1% B16..8: 42.6% 8.9% 2.5% direct: 5.1% skip:39.7% L0:43.8% L1:45.1% BI:11.1%
x264 [info]: 8x8 transform intra:73.9% inter:60.6%
x264 [info]: coded y,uvDC,uvAC intra: 83.6% 86.1% 70.7% inter: 22.5% 26.4% 11.1%
x264 [info]: i16 v,h,dc,p: 44% 12% 10% 33%
x264 [info]: i8 v,h,dc,ddl,ddr,vr,hd,vl,hu: 16% 8% 8% 9% 13% 13% 11% 11% 11%
x264 [info]: i4 v,h,dc,ddl,ddr,vr,hd,vl,hu: 17% 9% 5% 9% 14% 14% 12% 11% 11%
x264 [info]: i8c dc,h,v,p: 46% 18% 19% 17%
x264 [info]: Weighted P-Frames: Y:5.7% UV:1.7%
x264 [info]: ref P L0: 55.3% 12.2% 14.1% 6.6% 4.4% 3.2% 2.5% 1.6% 0.1% 0.0%
x264 [info]: ref B L0: 78.4% 10.3% 5.3% 2.5% 1.7% 1.2% 0.6%
x264 [info]: ref B L1: 92.1% 7.9%
x264 [info]: kb/s:2063.91
XID: Apple:vendor_id:1997-3797
Content ID: 279598771
ScreenWriters: Джонатан Лемкин, Тони Гилрой, Эндрю Нейдерман
Producers: Энн Копельсон, Арнольд Копельсон, Арнон Милчэн
Director: Тейлор Хэкфорд
Cast: Киану Ривз, Аль Пачино, Шарлиз Терон, Джеффри Джонс, Джудит Айви, Конни Нильсен, Крэйг Т. Нельсон, Тамара Тюни, Рубен Сантьяго-Хадсон, Дебра Монк
Long Description: В Нью-Йорк по приглашению главы крупного юридического концерна прибывает Кевин Ломакс, молодой адвокат. До этого он был известен тем, что защищал исключительно негодяев и притом не проиграл ни одного процесса. На новом месте работы он вполне счастлив, он живет в роскошной квартире с любящей женой, его окружают интересные люди…
Description: В Нью-Йорк по приглашению главы крупного юридического концерна прибывает Кевин Ломакс, молодой адвокат. До этого он был известен тем, что защищал исключительно негодяев и притом не проиграл ни одного процесса.
Release Date: 1997-10-17T07:00:00Z
Genre: триллер, драма, детектив
Artist: Тейлор Хэкфорд
Name: Адвокат дьявола / The Devil's Advocate
Скриншоты:

Рип сделан по заказу - aquarelle
Время раздачи: 24/7
[NNM-Club.me]_The Devil's Advocate.1997.BDRip.iPad.m4v.torrent
 Торрент: Платиновая раздача  Зарегистрирован
 
Скачать


Примагнититься
 Зарегистрирован:   19 Авг 2013 20:22:48
 Размер:   2.88 GB  (
 Рейтинг:   4.7 (Голосов: 30)
 Поблагодарили:   81
 Проверка:   Оформление проверено модератором 19 Авг 2013 23:03:25
Как cкачать  ·  Как раздать  ·  Правильно оформить  ·  Поднять ратио!  
Показать сообщения:   
Начать новую тему   Ответить на тему    Торрент-трекер NNM-Club -> Аудио и Видео -> Зарубежное видео для устройств Apple Часовой пояс: GMT + 3
Страница 1 из 1