Классический форум-трекер
canvas not supported
Нас вместе: 4 233 633

Игры разума / A Beautiful Mind (2001) DVDRip


 
 
RSS
Начать новую тему   Ответить на тему    Торрент-трекер NNM-Club -> Зарубежное кино -> Зарубежные Фильмы (SD)
Автор Сообщение
Marioxo ®
Стаж: 11 лет 6 мес.
Сообщений: 61
Ratio: 8.309
Раздал: 3.58 TB
Поблагодарили: 10500
100%
russia.gif
Игры разума / A Beautiful Mind (2001) DVDRip
Год выпуска: 2001
Производство: США
Жанр: Драма

Описание фильма:
От всемирной известности до греховных глубин — все это познал на своей шкуре Джон Форбс Нэш-младший. Математический гений, он на заре своей карьеры сделал титаническую работу в области теории игр, которая перевернула этот раздел математики и практически принесла ему международную известность.
Однако буквально в то же время заносчивый и пользующийся успехом у женщин Нэш получает удар судьбы, который переворачивает уже его собственную жизнь.

Режиссер: Рон Ховард
Актеры: Расселл Кроу, Эд Харрис, Дженнифер Коннелли, Кристофер Пламмер, Джадд Хирш, Эдам Голдберг

Продолжительность: 02:09:50
Качество видео: DVDRip
Перевод: Дублированный
Язык субтитров: Отсутствуют



Дата мировой премьеры: 13 декабря 2001
Дата российской премьеры: 3 июля 2002, «Ист-Вест»
Дата выхода DVD релиза: 24 марта 2011, «ВС трейд»

Видеокодек: Xvid
Битрейт видео: ~685 kbps
Размер кадра: 624x352
Аудиокодек: MP3 2.0
Битрейт аудио: 112 Kbps
Общее
Полное имя : E:\Торренты на раздачу\Игры разума\A_Beautiful_Mind.avi
Формат : AVI
Формат/Информация : Audio Video Interleave
Размер файла : 750 Мбайт
Продолжительность : 2 ч. 9 м.
Общий поток : 807 Кбит/сек
Режиссёр : zim2001
Программа кодирования : VirtualDubMod 1.5.10.2 (build 2540/release)

Видео
Идентификатор : 0
Формат : MPEG-4 Visual
Профиль формата : Advanced Simple@L5
Параметр BVOP формата : 1
Параметр QPel формата : Нет
Параметр GMC формата : Без точки перехода
Параметр матрицы формата : Default (H.263)
Идентификатор кодека : XVID
Идентификатор кодека/Подсказка : XviD
Продолжительность : 2 ч. 9 м.
Битрейт : 686 Кбит/сек
Ширина : 624 пикселя
Высота : 352 пикселя
Соотношение сторон : 16:9
Частота кадров : 25,000 кадров/сек
Цветовое пространство : YUV
Субдискретизация насыщенности : 4:2:0
Битовая глубина : 8 бит
Тип развёртки : Прогрессивная
Метод сжатия : С потерями
Бит/(Пиксели*Кадры) : 0.125
Размер потока : 637 Мбайт (85%)
Библиотека кодирования : XviD 1.2.1 (UTC 2008-12-04)

Аудио
Идентификатор : 1
Формат : MPEG Audio
Версия формата : Version 1
Профиль формата : Layer 3
Идентификатор кодека : 55
Идентификатор кодека/Подсказка : MP3
Продолжительность : 2 ч. 9 м.
Вид битрейта : Постоянный
Битрейт : 112 Кбит/сек
Каналы : 2 канала
Частота : 44,1 КГц
Метод сжатия : С потерями
Размер потока : 104 Мбайт (14%)
Выравнивание : Разделение по промежуткам
Продолжительность промежутка : 40 мс. (1,00 видеокадр)
Время предзагрузки промежутка : 500 мс.
Библиотека кодирования : LAME3.97
Настройки программы : -m s -V 4 -q 2 -lowpass 15.6 -b 112
Скриншоты:


Все релизы "Игры разума" на сайте

Время раздачи: ~ С 14:00 до 03:00 (10-15 скачавших)
[NNM-Club.me]_A_Beautiful_Mind.torrent
 Торрент: Платиновая раздача  Зарегистрирован
 
Скачать


Примагнититься
 Зарегистрирован:   26 Авг 2013 16:16:10
 Размер:   750 MB  (
 Рейтинг:   4.9 (Голосов: 85)
 Поблагодарили:   306
 Проверка:   Оформление проверено модератором 27 Авг 2013 08:05:07
Как cкачать  ·  Как раздать  ·  Правильно оформить  ·  Поднять ратио!  
WildWhisper
Стаж: 14 лет 6 мес.
Сообщений: 608
Ratio: 32.279
100%
ukraine.gif
Теория игр!
Уииииииии! :)
Lanitoin
Стаж: 11 лет 1 мес.
Сообщений: 42
Ratio: 3.962
100%
Откуда: Азерот
ussr.gif
Интересное кино, главное никуда не спешить и ниначто не отвлекаться.
MAX_zp
Стаж: 14 лет 4 мес.
Сообщений: 296
Ratio: 9.96
Поблагодарили: 1096
100%
ukraine.gif
Лежит давно в коллекции! Периодически пересматриваю...
Показать сообщения:   
Начать новую тему   Ответить на тему    Торрент-трекер NNM-Club -> Зарубежное кино -> Зарубежные Фильмы (SD) Часовой пояс: GMT + 3
Страница 1 из 1