Классический форум-трекер
canvas not supported
Нас вместе: 4 165 228

Scorpions & Berliner Philharmoniker - Moment Of Glory (2000)/ Japan, Toshiba-EMI [ALAC|Tracks]<Symphonic Rock>


 
 
RSS
Начать новую тему   Ответить на тему    Торрент-трекер NNM-Club -> Аудио и Видео -> Музыка Lossless (ALAC)
Автор Сообщение
sseless ®
Меломан, Реставратор
Стаж: 9 лет
Сообщений: 3542
Ratio: 1386.827
Раздал: 45.33 TB
Поблагодарили: 160396
100%
north_korea.gif
Scorpions & Berliner Philharmoniker - Moment Of Glory (2000)
Год: 2000
Страна-производитель диска: Япония
Лейбл: EMI/Toshiba-EMI
Каталожный №: TOCP-65484
Жанр: Symphonic Rock
Продолжительность: 01:05:50

Кодек: ALAC
Тип раздачи: Tracks
Тексты: добавлены
Обложки: вишиты
Кодирование: foobar2000 + iTunes
Автор рипа: mewzik

Moment of Glory — альбом немецкой рок-группы Scorpions, записанный совместно с Берлинским Филармоническим оркестром, вышедший в 2000 году.

Треклист:
01. Hurricane 2000 (6:04)
02. Moment Of Glory (5:08)
03. Send Me An Angel (6:19)
04. Wind Of Change (7:36)
05. Crossfire (6:48)
06. Deadly Sting Suite (7:23)
07. Here In My Heart (4:21)
08. Still Loving You (7:29)
09. Big City Nights (4:37)
10. Lady Starlight (5:26)
11. Hurricane 2000 (Radio Edit) - Bonus Track (4:39)
Код:

Общее
Полное имя                               : C:\2000 - Moment Of Glory\01 - Hurricane 2000.m4a
Формат                                   : MPEG-4
Профиль формата                          : Apple audio with iTunes info
Идентификатор кодека                     : M4A
Размер файла                             : 47,3 Мбайт
Продолжительность                        : 6 м. 4 с.
Режим общего битрейта                    : Переменный
Общий поток                              : 1090 Кбит/сек
Альбом                                   : Moment Of Glory
Альбом/Исполнитель                       : Scorpions & Berliner Philarmoniker
Трек                                     : Hurricane 2000
Трек/Положение                           : 1
Трек/Всего                               : 11
Исполнитель                              : Scorpions
Жанр                                     : Symphonic Rock
Дата записи                              : 2000
Дата кодирования                         : UTC 2013-05-08 14:35:27
Дата пометки                             : UTC 2013-05-17 21:24:16
Программа кодирования                    : iTunes 10.6.3.25
Обложка                                  : Yes
Примечание                               : Line Up: / Klaus Meine (Vocals) / Rudolf Schenker (Guitars) / Matthias Jabs (Guitars) / James Kottak (Drums) / Ken Taylor (Bass) / Producers: Scorpions & Christian Kolonovits
©lyr                                     : HURRICANE 2000 /  / Music: / Rudolf Schenker / Lyrics: / Klaus Meine, Herman Rarebell / It´s early morning / The sun comes out / Last night was shaking / And pretty loud / My cat is purring / And scratches my skin / So what is wrong / With another sin / The bitch is hungry / She needs to tell / So give her inches / And feed her well / More days to come / New places to go / I´ve got to leave / It´s time for a show /  / Here I am, rock you like a hurricane / Here I am, rock you like a hurricane /  / My body is burning / It starts to shout / Desire is coming / It breaks out loud / Lust is in cages / Till storm breaks loose / Just have to make it / With someone I choose / The night is calling / I have to go / The wolf is hungry / He runs the show / He´s licking his lips / He´s ready to win / On the hunt tonight / For love at first sting /  / Here I am, rock you like a hurricane / Here I am, rock you like a hurricane / Here I am, rock you like a hurricane / Here I am, rock you like a hurricane

Аудио
Идентификатор                            : 1
Формат                                   : ALAC
Идентификатор кодека                     : alac
Идентификатор кодека/Информация          : Apple Lossless Audio Codec
Продолжительность                        : 6 м. 4 с.
Duration_LastFrame                       : -34 мс.
Вид битрейта                             : Переменный
Битрейт                                  : 1078 Кбит/сек
Каналы                                   : 2 канала
Частота                                  : 44,1 КГц
Битовая глубина                          : 16 бит
Размер потока                            : 46,8 Мбайт (99%)
Дата кодирования                         : UTC 2013-05-08 14:35:27
Дата пометки                             : UTC 2013-05-17 21:24:16

Общее
Полное имя                               : C:\2000 - Moment Of Glory\02 - Moment Of Glory.m4a
Формат                                   : MPEG-4
Профиль формата                          : Apple audio with iTunes info
Идентификатор кодека                     : M4A
Размер файла                             : 38,1 Мбайт
Продолжительность                        : 5 м. 8 с.
Режим общего битрейта                    : Переменный
Общий поток                              : 1037 Кбит/сек
Альбом                                   : Moment Of Glory
Альбом/Исполнитель                       : Scorpions & Berliner Philarmoniker
Трек                                     : Moment Of Glory
Трек/Положение                           : 2
Трек/Всего                               : 11
Исполнитель                              : Scorpions
Жанр                                     : Symphonic Rock
Дата записи                              : 2000
Дата кодирования                         : UTC 2013-05-08 14:35:30
Дата пометки                             : UTC 2013-05-17 21:24:16
Программа кодирования                    : iTunes 10.6.3.25
Обложка                                  : Yes
Примечание                               : Line Up: / Klaus Meine (Vocals) / Rudolf Schenker (Guitars) / Matthias Jabs (Guitars) / James Kottak (Drums) / Ken Taylor (Bass) / Producers: Scorpions & Christian Kolonovits
©lyr                                     : MOMENT OF GLORY /  / Music: / Klaus Meine / Lyrics: / Klaus Meine / A moment of glory called evolution / Could I see the world with the eyes of a child / A new beginning, a moment of freedom / Like angels are singing a song full of joy /  / This Side Of Heaven / Belongs To The Children / I will be there, when the future arrives /  / A moment of glory called evolution / Could I fly away like a bird in the Sky / No limitation, a new inspiration / A World that is free just as free as my mind /  / Communication / A new destination / The planet of visions is calling tonight /  / Another thousand years seem so long / I´m just a passenger / And the ride ride has just begun /  / Moment of glory / A moment of glory called evolution / Could I see the world with the eyes of a child / A new beginning, a moment of freedom / Like angels are singing a song full of joy /  / This Side Of Heaven / Belongs To The Children / I will be there, when the future arrives /  / Moment of glory

Аудио
Идентификатор                            : 1
Формат                                   : ALAC
Идентификатор кодека                     : alac
Идентификатор кодека/Информация          : Apple Lossless Audio Codec
Продолжительность                        : 5 м. 8 с.
Duration_LastFrame                       : -28 мс.
Вид битрейта                             : Переменный
Битрейт                                  : 1023 Кбит/сек
Каналы                                   : 2 канала
Частота                                  : 44,1 КГц
Битовая глубина                          : 16 бит
Размер потока                            : 37,6 Мбайт (99%)
Дата кодирования                         : UTC 2013-05-08 14:35:30
Дата пометки                             : UTC 2013-05-17 21:24:16

Общее
Полное имя                               : C:\2000 - Moment Of Glory\03 - Send Me An Angel.m4a
Формат                                   : MPEG-4
Профиль формата                          : Apple audio with iTunes info
Идентификатор кодека                     : M4A
Размер файла                             : 44,6 Мбайт
Продолжительность                        : 6 м. 19 с.
Режим общего битрейта                    : Переменный
Общий поток                              : 986 Кбит/сек
Альбом                                   : Moment Of Glory
Альбом/Исполнитель                       : Scorpions & Berliner Philarmoniker
Трек                                     : Send Me An Angel
Трек/Положение                           : 3
Трек/Всего                               : 11
Исполнитель                              : Scorpions
Жанр                                     : Symphonic Rock
Дата записи                              : 2000
Дата кодирования                         : UTC 2013-05-08 14:35:33
Дата пометки                             : UTC 2013-05-17 21:24:16
Программа кодирования                    : iTunes 10.6.3.25
Обложка                                  : Yes
Примечание                               : Line Up: / Klaus Meine (Vocals) / Rudolf Schenker (Guitars) / Matthias Jabs (Guitars) / James Kottak (Drums) / Ken Taylor (Bass) / Producers: Scorpions & Christian Kolonovits
©lyr                                     : SEND ME AN ANGEL /  / Music: / Rudolf Schenker / Lyrics: / Klaus Meine / The wise man said just walk this way / To the dawn of the light / The wind will blow into your face / As the years pass you by / Hear this voice from deep inside / It´s the call of your heart / Close your eyes and your will find / The passage out of the dark /  / Here I am / Will you send me an angel / Here I am / In the land of the morning star /  / The wise man said just find your place / In the eye of the storm / Seek the roses along the way / Just beware of the thorns /  / Here I am / Will you send me an angel / Here I am / In the land of the morning star /  / The wise man said just raise your hand / And reach out for the spell / Find the door to the promised land / Just believe in yourself / Hear this voice from deep inside / It´s the call of your heart / Close your eyes and your will find / The way out of the dark /  / Here I am / Will you send me an angel / Here I am / In the land of the morning star / Here I am / Will you send me an angel / Here I am / In the land of the morning star

Аудио
Идентификатор                            : 1
Формат                                   : ALAC
Идентификатор кодека                     : alac
Идентификатор кодека/Информация          : Apple Lossless Audio Codec
Продолжительность                        : 6 м. 19 с.
Duration_LastFrame                       : -28 мс.
Вид битрейта                             : Переменный
Битрейт                                  : 975 Кбит/сек
Каналы                                   : 2 канала
Частота                                  : 44,1 КГц
Битовая глубина                          : 16 бит
Размер потока                            : 44,1 Мбайт (99%)
Дата кодирования                         : UTC 2013-05-08 14:35:33
Дата пометки                             : UTC 2013-05-17 21:24:16

Общее
Полное имя                               : C:\2000 - Moment Of Glory\04 - Wind Of Change.m4a
Формат                                   : MPEG-4
Профиль формата                          : Apple audio with iTunes info
Идентификатор кодека                     : M4A
Размер файла                             : 53,0 Мбайт
Продолжительность                        : 7 м. 36 с.
Режим общего битрейта                    : Переменный
Общий поток                              : 975 Кбит/сек
Альбом                                   : Moment Of Glory
Альбом/Исполнитель                       : Scorpions & Berliner Philarmoniker
Трек                                     : Wind Of Change
Трек/Положение                           : 4
Трек/Всего                               : 11
Исполнитель                              : Scorpions
Жанр                                     : Symphonic Rock
Дата записи                              : 2000
Дата кодирования                         : UTC 2013-05-08 14:35:36
Дата пометки                             : UTC 2013-05-17 21:24:16
Программа кодирования                    : iTunes 10.6.3.25
Обложка                                  : Yes
Примечание                               : Line Up: / Klaus Meine (Vocals) / Rudolf Schenker (Guitars) / Matthias Jabs (Guitars) / James Kottak (Drums) / Ken Taylor (Bass) / Producers: Scorpions & Christian Kolonovits
©lyr                                     : WIND OF CHANGE /  / Music: / Klaus Meine / Lyrics: / Klaus Meine / I follow the Moskva / Down to Gorky Park / Listening to the wind of change / An August summer night / Soldiers passing by / Listening to the wind of change /  / The world is closing in / Did you ever think / That we could be so close, like brothers / The future´s in the air / I can feel it everywhere / Blowing with the wind of change /  / Take me to the magic of the moment / On a glory night / Where the children of tomorrow dream away / in the wind of change /  / Walking down the street / Distant memories / Are buried in the past forever / I follow the Moskva / Down to Gorky Park / Listening to the wind of change /  / Take me to the magic of the moment / On a glory night / Where the children of tomorrow share their dreams / With you and me / Take me to the magic of the moment / On a glory night / Where the children of tomorrow dream away / in the wind of change /  / The wind of change / Blows straight into the face of time / Like a stormwind that will ring the freedom bell / For peace of mind / Let your balalaika sing / What my guitar wants to say /  / Take me to the magic of the moment / On a glory night / Where the children of tomorrow share their dreams / With you and me / Take me to the magic of the moment / On a glory night / Where the children of tomorrow dream away / in the wind of change

Аудио
Идентификатор                            : 1
Формат                                   : ALAC
Идентификатор кодека                     : alac
Идентификатор кодека/Информация          : Apple Lossless Audio Codec
Продолжительность                        : 7 м. 36 с.
Duration_LastFrame                       : -66 мс.
Вид битрейта                             : Переменный
Битрейт                                  : 965 Кбит/сек
Каналы                                   : 2 канала
Частота                                  : 44,1 КГц
Битовая глубина                          : 16 бит
Размер потока                            : 52,5 Мбайт (99%)
Дата кодирования                         : UTC 2013-05-08 14:35:36
Дата пометки                             : UTC 2013-05-17 21:24:16

Общее
Полное имя                               : C:\2000 - Moment Of Glory\05 - Crossfire.m4a
Формат                                   : MPEG-4
Профиль формата                          : Apple audio with iTunes info
Идентификатор кодека                     : M4A
Размер файла                             : 44,2 Мбайт
Продолжительность                        : 6 м. 47 с.
Режим общего битрейта                    : Переменный
Общий поток                              : 910 Кбит/сек
Альбом                                   : Moment Of Glory
Альбом/Исполнитель                       : Scorpions & Berliner Philarmoniker
Трек                                     : Crossfire
Трек/Положение                           : 5
Трек/Всего                               : 11
Исполнитель                              : Scorpions
Жанр                                     : Symphonic Rock
Дата записи                              : 2000
Дата кодирования                         : UTC 2013-05-08 14:35:40
Дата пометки                             : UTC 2013-05-17 21:24:17
Программа кодирования                    : iTunes 10.6.3.25
Обложка                                  : Yes
Примечание                               : Line Up: / Klaus Meine (Vocals) / Rudolf Schenker (Guitars) / Matthias Jabs (Guitars) / James Kottak (Drums) / Ken Taylor (Bass) / Producers: Scorpions & Christian Kolonovits
©lyr                                     : CROSSFIRE /  / Prolouge (Midnight In Moscow) /  / Music: / Vassily Solovyev-Sedoy, / arranged by Christian Kolonovits / Crossfire /  / Music: / Rudolf Schenker / Instrumental

Аудио
Идентификатор                            : 1
Формат                                   : ALAC
Идентификатор кодека                     : alac
Идентификатор кодека/Информация          : Apple Lossless Audio Codec
Продолжительность                        : 6 м. 47 с.
Duration_LastFrame                       : -88 мс.
Вид битрейта                             : Переменный
Битрейт                                  : 899 Кбит/сек
Каналы                                   : 2 канала
Частота                                  : 44,1 КГц
Битовая глубина                          : 16 бит
Размер потока                            : 43,7 Мбайт (99%)
Дата кодирования                         : UTC 2013-05-08 14:35:40
Дата пометки                             : UTC 2013-05-17 21:24:17

Общее
Полное имя                               : C:\2000 - Moment Of Glory\06 - Deadly Sting Suite.m4a
Формат                                   : MPEG-4
Профиль формата                          : Apple audio with iTunes info
Идентификатор кодека                     : M4A
Размер файла                             : 58,8 Мбайт
Продолжительность                        : 7 м. 22 с.
Режим общего битрейта                    : Переменный
Общий поток                              : 1114 Кбит/сек
Альбом                                   : Moment Of Glory
Альбом/Исполнитель                       : Scorpions & Berliner Philarmoniker
Трек                                     : Deadly Sting Suite
Трек/Положение                           : 6
Трек/Всего                               : 11
Исполнитель                              : Scorpions
Жанр                                     : Symphonic Rock
Дата записи                              : 2000
Дата кодирования                         : UTC 2013-05-08 14:35:43
Дата пометки                             : UTC 2013-05-17 21:24:17
Программа кодирования                    : iTunes 10.6.3.25
Обложка                                  : Yes
Примечание                               : Line Up: / Klaus Meine (Vocals) / Rudolf Schenker (Guitars) / Matthias Jabs (Guitars) / James Kottak (Drums) / Ken Taylor (Bass) / Producers: Scorpions & Christian Kolonovits
©lyr                                     : DEADLY STING SUITE /  / Music: / Rudolf Schenker / Instrumental

Аудио
Идентификатор                            : 1
Формат                                   : ALAC
Идентификатор кодека                     : alac
Идентификатор кодека/Информация          : Apple Lossless Audio Codec
Продолжительность                        : 7 м. 22 с.
Duration_LastFrame                       : -65 мс.
Вид битрейта                             : Переменный
Битрейт                                  : 1104 Кбит/сек
Каналы                                   : 2 канала
Частота                                  : 44,1 КГц
Битовая глубина                          : 16 бит
Размер потока                            : 58,2 Мбайт (99%)
Дата кодирования                         : UTC 2013-05-08 14:35:43
Дата пометки                             : UTC 2013-05-17 21:24:17

Общее
Полное имя                               : C:\2000 - Moment Of Glory\07 - Here In My Heart.m4a
Формат                                   : MPEG-4
Профиль формата                          : Apple audio with iTunes info
Идентификатор кодека                     : M4A
Размер файла                             : 30,6 Мбайт
Продолжительность                        : 4 м. 20 с.
Режим общего битрейта                    : Переменный
Общий поток                              : 984 Кбит/сек
Альбом                                   : Moment Of Glory
Альбом/Исполнитель                       : Scorpions & Berliner Philarmoniker
Трек                                     : Here In My Heart
Трек/Положение                           : 7
Трек/Всего                               : 11
Исполнитель                              : Scorpions
Жанр                                     : Symphonic Rock
Дата записи                              : 2000
Дата кодирования                         : UTC 2013-05-08 14:35:47
Дата пометки                             : UTC 2013-05-17 21:24:17
Программа кодирования                    : iTunes 10.6.3.25
Обложка                                  : Yes
Примечание                               : Line Up: / Klaus Meine (Vocals) / Rudolf Schenker (Guitars) / Matthias Jabs (Guitars) / James Kottak (Drums) / Ken Taylor (Bass) / Producers: Scorpions & Christian Kolonovits
©lyr                                     : HERE IN MY HEART /  / Music: / Diane Warren / Sometimes there´s a time you must say goodbye / Though it hurts you must learn to try / I know I´ve got to let you go / But I know anywhere you go / You´ll never be far / ´Coz like the light of a bright star / You´ll keep shining in my life / You´re gonna be right /  / Here in my heart / That´s where you´ll be / You´ll be with me / Here in my heart / No distance can keep us apart / Long as you´re here in my heart /  / Won´t be any tears falling from these eyes / ´Coz when love´s true love never dies / It stays alive forever / Time can´t take away what we have / I will remember our time together / You might think our time is through / But I still have you /  / Here in my heart / That´s where you´ll be / You´ll be with me / Here in my heart / No distance can keep us apart / Long as you´re here in my heart /  / I know you´ll be back again / And ´till then / My love is waiting /  / Here in my heart / That´s where you´ll be / You´ll be with me / Here in my heart / No distance can keep us apart / Long as you´re here in my heart

Аудио
Идентификатор                            : 1
Формат                                   : ALAC
Идентификатор кодека                     : alac
Идентификатор кодека/Информация          : Apple Lossless Audio Codec
Продолжительность                        : 4 м. 20 с.
Duration_LastFrame                       : -47 мс.
Вид битрейта                             : Переменный
Битрейт                                  : 967 Кбит/сек
Каналы                                   : 2 канала
Частота                                  : 44,1 КГц
Битовая глубина                          : 16 бит
Размер потока                            : 30,0 Мбайт (98%)
Дата кодирования                         : UTC 2013-05-08 14:35:47
Дата пометки                             : UTC 2013-05-17 21:24:17

Общее
Полное имя                               : C:\2000 - Moment Of Glory\08 - Still Loving You.m4a
Формат                                   : MPEG-4
Профиль формата                          : Apple audio with iTunes info
Идентификатор кодека                     : M4A
Размер файла                             : 55,0 Мбайт
Продолжительность                        : 7 м. 28 с.
Режим общего битрейта                    : Переменный
Общий поток                              : 1028 Кбит/сек
Альбом                                   : Moment Of Glory
Альбом/Исполнитель                       : Scorpions & Berliner Philarmoniker
Трек                                     : Still Loving You
Трек/Положение                           : 8
Трек/Всего                               : 11
Исполнитель                              : Scorpions
Жанр                                     : Symphonic Rock
Дата записи                              : 2000
Дата кодирования                         : UTC 2013-05-08 14:35:49
Дата пометки                             : UTC 2013-05-17 21:24:17
Программа кодирования                    : iTunes 10.6.3.25
Обложка                                  : Yes
Примечание                               : Line Up: / Klaus Meine (Vocals) / Rudolf Schenker (Guitars) / Matthias Jabs (Guitars) / James Kottak (Drums) / Ken Taylor (Bass) / Producers: Scorpions & Christian Kolonovits
©lyr                                     : STILL LOVING YOU /  / Music: / Rudolf Schenker / Lyrics: / Klaus Meine / Time, it needs time / To win back your love again / I will be there, I will be there / Love, only love / Can bring back your love someday / I will be there, I will be there /  / I´ll fight, babe, I´ll fight / To win back your love again / I will be there, I will be there / Love, only love / Can break down the wall someday / I will be there, I will be there /  / If we´d go again / All the way from the start / I would try to change / The things that killed our love / Your pride has built a wall, so strong / That I can´t get through / Is there really no chance / To start once again / I´m loving you /  / Try, baby try / To trust in my love again / I will be there, I will be there / Love, our love / Just shouldn´t be thrown away / I will be there, I will be there /  / If we´d go again / All the way from the start / I would try to change / The things that killed our love / Your pride has built a wall, so strong / That I can´t get through / Is there really no chance / To start once again /  / If we´d go again / All the way from the start / I would try to change / The things that killed our love / Yes, I´ve hurt your pride, and I know / What you´ve been through / You should give me a chance / This can´t be the end / I´m still loving you / I´m still loving you, I need your love / I´m still loving you

Аудио
Идентификатор                            : 1
Формат                                   : ALAC
Идентификатор кодека                     : alac
Идентификатор кодека/Информация          : Apple Lossless Audio Codec
Продолжительность                        : 7 м. 28 с.
Duration_LastFrame                       : -61 мс.
Вид битрейта                             : Переменный
Битрейт                                  : 1018 Кбит/сек
Каналы                                   : 2 канала
Частота                                  : 44,1 КГц
Битовая глубина                          : 16 бит
Размер потока                            : 54,5 Мбайт (99%)
Дата кодирования                         : UTC 2013-05-08 14:35:49
Дата пометки                             : UTC 2013-05-17 21:24:17

Общее
Полное имя                               : C:\2000 - Moment Of Glory\09 - Big City Nights.m4a
Формат                                   : MPEG-4
Профиль формата                          : Apple audio with iTunes info
Идентификатор кодека                     : M4A
Размер файла                             : 37,2 Мбайт
Продолжительность                        : 4 м. 37 с.
Режим общего битрейта                    : Переменный
Общий поток                              : 1127 Кбит/сек
Альбом                                   : Moment Of Glory
Альбом/Исполнитель                       : Scorpions & Berliner Philarmoniker
Трек                                     : Big City Nights
Трек/Положение                           : 9
Трек/Всего                               : 11
Исполнитель                              : Scorpions
Жанр                                     : Symphonic Rock
Дата записи                              : 2000
Дата кодирования                         : UTC 2013-05-08 14:35:53
Дата пометки                             : UTC 2013-05-17 21:24:17
Программа кодирования                    : iTunes 10.6.3.25
Обложка                                  : Yes
Примечание                               : Line Up: / Klaus Meine (Vocals) / Rudolf Schenker (Guitars) / Matthias Jabs (Guitars) / James Kottak (Drums) / Ken Taylor (Bass) / Producers: Scorpions & Christian Kolonovits
©lyr                                     : BIG CITY NIGHTS /  / Music: / Rudolf Schenker / Lyrics: / Klaus Meine / When the daylight is falling down into the night / And the sharks try to cut a big piece out of life / It feels alright to go out to catch an outrageous thrill / But it´s more like spinning wheels of fortune / Which never stand still /  / Big city, big city nights / You keep me burning / Big city, big city nights /  / When the sunlight is rising up in my eyes / And the long night has left me back at somebody´s side / It feels alright for a long sweet minute like hours before / But it´s more like looking out for something / I can´t find anymore /  / Big city, big city nights / You keep me burning / Big city, big city nights / Always yearning /  / There is no dream / That you can´t make true, if you´re looking for love / But there´s no girl / Who´s burning the ice away from my heart / Maybe tonight! /  / Big city, big city nights / You keep me burning / Big city, big city nights / Always yearning / Big city, big city nights / You keep me burning / Big city, big city nights / Always yearning

Аудио
Идентификатор                            : 1
Формат                                   : ALAC
Идентификатор кодека                     : alac
Идентификатор кодека/Информация          : Apple Lossless Audio Codec
Продолжительность                        : 4 м. 37 с.
Duration_LastFrame                       : -87 мс.
Вид битрейта                             : Переменный
Битрейт                                  : 1111 Кбит/сек
Каналы                                   : 2 канала
Частота                                  : 44,1 КГц
Битовая глубина                          : 16 бит
Размер потока                            : 36,7 Мбайт (99%)
Дата кодирования                         : UTC 2013-05-08 14:35:53
Дата пометки                             : UTC 2013-05-17 21:24:17

Общее
Полное имя                               : C:\2000 - Moment Of Glory\10 - Lady Starlight.m4a
Формат                                   : MPEG-4
Профиль формата                          : Apple audio with iTunes info
Идентификатор кодека                     : M4A
Размер файла                             : 38,7 Мбайт
Продолжительность                        : 5 м. 26 с.
Режим общего битрейта                    : Переменный
Общий поток                              : 994 Кбит/сек
Альбом                                   : Moment Of Glory
Альбом/Исполнитель                       : Scorpions & Berliner Philarmoniker
Трек                                     : Lady Starlight
Трек/Положение                           : 10
Трек/Всего                               : 11
Исполнитель                              : Scorpions
Жанр                                     : Symphonic Rock
Дата записи                              : 2000
Дата кодирования                         : UTC 2013-05-08 14:35:55
Дата пометки                             : UTC 2013-05-17 21:24:17
Программа кодирования                    : iTunes 10.6.3.25
Обложка                                  : Yes
Примечание                               : Line Up: / Klaus Meine (Vocals) / Rudolf Schenker (Guitars) / Matthias Jabs (Guitars) / James Kottak (Drums) / Ken Taylor (Bass) / Producers: Scorpions & Christian Kolonovits
©lyr                                     : LADY STARLIGHT /  / Music: / Rudolf Schenker / Lyrics: / Klaus Meine / Walking through a winter night, / Counting the stars / And passing time / I dream about the summer days, / Love in the sun / And lonely bays /  / I see the stars, they´re miles and miles away / Like our love, / On one of these lonely winter nights /  / Dreaming through a winter night, / Memories of you / On My Mind / It seems to me like yesterday / I think you knew I couldn´t stay /  / I see the stars, they´re miles and miles away / Like our love / Lady starlight, help me to find my love / Lady starlight, help me tonight / Help me to find my love /  / Walking through a winter night, / Counting the stars / And passing time / Snow dances with the wind / Keep thinking of you again and again /  / I see the stars, they´re miles and miles away / Like our love / Lady starlight, help me to find my love / Lady starlight, help me tonight / Help me to find my love

Аудио
Идентификатор                            : 1
Формат                                   : ALAC
Идентификатор кодека                     : alac
Идентификатор кодека/Информация          : Apple Lossless Audio Codec
Продолжительность                        : 5 м. 26 с.
Duration_LastFrame                       : -20 мс.
Вид битрейта                             : Переменный
Битрейт                                  : 981 Кбит/сек
Каналы                                   : 2 канала
Частота                                  : 44,1 КГц
Битовая глубина                          : 16 бит
Размер потока                            : 38,1 Мбайт (99%)
Дата кодирования                         : UTC 2013-05-08 14:35:55
Дата пометки                             : UTC 2013-05-17 21:24:17

Общее
Полное имя                               : C:\2000 - Moment Of Glory\11 - Hurricane 2000 (Radio Edit) - Bonus Track.m4a
Формат                                   : MPEG-4
Профиль формата                          : Apple audio with iTunes info
Идентификатор кодека                     : M4A
Размер файла                             : 35,0 Мбайт
Продолжительность                        : 4 м. 38 с.
Режим общего битрейта                    : Переменный
Общий поток                              : 1055 Кбит/сек
Альбом                                   : Moment Of Glory
Альбом/Исполнитель                       : Scorpions & Berliner Philarmoniker
Трек                                     : Hurricane 2000 (Radio Edit) - Bonus Track
Трек/Положение                           : 11
Трек/Всего                               : 11
Исполнитель                              : Scorpions
Жанр                                     : Symphonic Rock
Дата записи                              : 2000
Дата кодирования                         : UTC 2013-05-08 14:35:58
Дата пометки                             : UTC 2013-05-17 21:24:17
Программа кодирования                    : iTunes 10.6.3.25
Обложка                                  : Yes
Примечание                               : Line Up: / Klaus Meine (Vocals) / Rudolf Schenker (Guitars) / Matthias Jabs (Guitars) / James Kottak (Drums) / Ken Taylor (Bass) / Producers: Scorpions & Christian Kolonovits
©lyr                                     : HURRICANE 2000 /  / Music: / Rudolf Schenker / Lyrics: / Klaus Meine, Herman Rarebell / It´s early morning / The sun comes out / Last night was shaking / And pretty loud / My cat is purring / And scratches my skin / So what is wrong / With another sin / The bitch is hungry / She needs to tell / So give her inches / And feed her well / More days to come / New places to go / I´ve got to leave / It´s time for a show /  / Here I am, rock you like a hurricane / Here I am, rock you like a hurricane /  / My body is burning / It starts to shout / Desire is coming / It breaks out loud / Lust is in cages / Till storm breaks loose / Just have to make it / With someone I choose / The night is calling / I have to go / The wolf is hungry / He runs the show / He´s licking his lips / He´s ready to win / On the hunt tonight / For love at first sting /  / Here I am, rock you like a hurricane / Here I am, rock you like a hurricane / Here I am, rock you like a hurricane / Here I am, rock you like a hurricane

Аудио
Идентификатор                            : 1
Формат                                   : ALAC
Идентификатор кодека                     : alac
Идентификатор кодека/Информация          : Apple Lossless Audio Codec
Продолжительность                        : 4 м. 38 с.
Duration_LastFrame                       : -66 мс.
Вид битрейта                             : Переменный
Битрейт                                  : 1039 Кбит/сек
Каналы                                   : 2 канала
Частота                                  : 44,1 КГц
Битовая глубина                          : 16 бит
Размер потока                            : 34,5 Мбайт (99%)
Дата кодирования                         : UTC 2013-05-08 14:35:58
Дата пометки                             : UTC 2013-05-17 21:24:17
Код:

Exact Audio Copy V1.0 beta 3 from 29. August 2011

Отчёт EAC об извлечении, выполненном 10. ноября 2012, 21:39

Scorpions / Moment Of Glory (TOCP-65484)

Дисковод: Optiarc DVD RW AD-5170A   Adapter: 0  ID: 0

Режим чтения                 : Достоверность
Использование точного потока : Да
Отключение кэша аудио        : Да
Использование указателей C2  : Нет

Коррекция смещения при чтении                     : 48
Способность читать области Lead-in и Lead-out     : Нет
Заполнение пропущенных сэмплов тишиной            : Да
Удаление блоков с тишиной в начале и конце        : Нет
При вычислениях CRC использовались нулевые сэмплы : Да
Интерфейс                                         : Встроенный Win32-интерфейс для Win NT/2000

Выходной формат : Внутренние WAV-операции
Формат сэмплов  : 44.100 Гц; 16 бит; стерео

TOC извлечённого CD

     Трек |   Старт  | Длительность | Начальный сектор | Конечный сектор
    ---------------------------------------------------------------------
       1  |  0:00.00 |    6:04.25   |           0      |      27324
       2  |  6:04.25 |    5:08.25   |       27325      |      50449
       3  | 11:12.50 |    6:19.22   |       50450      |      78896
       4  | 17:31.72 |    7:36.05   |       78897      |     113101
       5  | 25:08.02 |    6:47.70   |      113102      |     143696
       6  | 31:55.72 |    7:22.45   |      143697      |     176891
       7  | 39:18.42 |    4:20.43   |      176892      |     196434
       8  | 43:39.10 |    7:28.62   |      196435      |     230096
       9  | 51:07.72 |    4:37.05   |      230097      |     250876
      10  | 55:45.02 |    5:26.20   |      250877      |     275346
      11  | 61:11.22 |    4:38.50   |      275347      |     296246

Характеристики диапазона извлечения и сообщения об ошибках

Выбранный диапазон

     Имя файла C:\2000 - Moment Of Glory (TOCP-65484).wav

     Пиковый уровень 100.0 %
     Скорость извлечения 5.5 X
     Качество диапазона 100.0 %
     CRC теста 12BF236D
     CRC копии 12BF236D
     Копирование... OK

Ошибок не произошло

AccurateRip: сводка

Трек  1  : извлечено точно (доверие 2)  [426F3A2E]  (AR v1)
Трек  2  : извлечено точно (доверие 2)  [88EC730F]  (AR v1)
Трек  3  : извлечено точно (доверие 2)  [6B2F64C1]  (AR v1)
Трек  4  : извлечено точно (доверие 2)  [46D685F0]  (AR v1)
Трек  5  : извлечено точно (доверие 2)  [381F5E83]  (AR v1)
Трек  6  : извлечено точно (доверие 2)  [29613E4C]  (AR v1)
Трек  7  : извлечено точно (доверие 2)  [8E6E4128]  (AR v1)
Трек  8  : извлечено точно (доверие 2)  [C9588975]  (AR v1)
Трек  9  : извлечено точно (доверие 2)  [A26CDEF9]  (AR v1)
Трек 10  : извлечено точно (доверие 2)  [F521D10E]  (AR v1)
Трек 11  : извлечено точно (доверие 2)  [76738D57]  (AR v1)

Все треки извлечены точно

Конец отчёта
Код:

-----------------------

DON'T MODIFY THIS FILE

-----------------------

PERFORMER: auCDtect Task Manager, ver. 1.6.0 RC1 build 1.6.0.1
Copyright (c) 2008-2010 y-soft. All rights reserved
http://y-soft.org

ANALYZER: auCDtect: CD records authenticity detector, version 0.8.2
Copyright (c) 2004 Oleg Berngardt. All rights reserved.
Copyright (c) 2004 Alexander Djourik. All rights reserved.

FILE: 11 - Hurricane 2000 (Radio Edit) - Bonus Track.m4a
  Size: 36752468 Hash: 1980CE69DC5655E9896CA7FD578994E5 Accuracy: -m0
  Conclusion: CDDA 99%
  Signature: 1A50D93361FBA1CBCB1ABDA97109E3D426D27E24
FILE: 10 - Lady Starlight.m4a
  Size: 40536300 Hash: 9BC2BC45DE7FAB40805578BE2851BCE6 Accuracy: -m0
  Conclusion: CDDA 100%
  Signature: D02F4B495794BD45E7D6B20072248513E569BBC5
FILE: 09 - Big City Nights.m4a
  Size: 39020556 Hash: B12537A9B5D2DCEEA3E0F4345C8EBCAB Accuracy: -m0
  Conclusion: CDDA 100%
  Signature: 93032F5A9CF61697A74E5FBA23C6FA0168AA9F9C
FILE: 08 - Still Loving You.m4a
  Size: 57652163 Hash: B130DD1D7DF579C4037E782B3CBA3499 Accuracy: -m0
  Conclusion: CDDA 100%
  Signature: 1072246F6617ADEF51CCD6CD2F5FFA14161405BB
FILE: 07 - Here In My Heart.m4a
  Size: 32035116 Hash: AD178909B9555B6BA89109EDC0CFBC8A Accuracy: -m0
  Conclusion: CDDA 99%
  Signature: 4F2ED50BE1758BAA15912B59A9664BC1CD66D1F5
FILE: 06 - Deadly Sting Suite.m4a
  Size: 61605388 Hash: 143C0B8D8B74851F5A69D78D0BAD46A9 Accuracy: -m0
  Conclusion: CDDA 100%
  Signature: 4E72BEA0438DBD123157D4643817F6BCCBCA0D0D
FILE: 05 - Crossfire.m4a
  Size: 46392742 Hash: A3727861EACFC6FEB6918264C0EFC8BF Accuracy: -m0
  Conclusion: CDDA 100%
  Signature: 47EADFED05B56B4E41868C53398FCCDD5749053E
FILE: 04 - Wind Of Change.m4a
  Size: 55576799 Hash: A5AF9692B9CF5FF32AF0FB1BABDC1138 Accuracy: -m0
  Conclusion: CDDA 100%
  Signature: A3B1788562C65279E80CCC2DBB6B29B3CA5CD5CE
FILE: 03 - Send Me An Angel.m4a
  Size: 46756234 Hash: 976FD673D78E4F269013D2CF5A94119F Accuracy: -m0
  Conclusion: CDDA 100%
  Signature: 506D824CF3EF53B51B87A986B98ED4D11CAEA58E
FILE: 02 - Moment Of Glory.m4a
  Size: 39974940 Hash: D9A98CF8078110BABE8EA7236C12545B Accuracy: -m0
  Conclusion: CDDA 100%
  Signature: 517773C06A2C7A0473AC5E397D6861BC9B4AFCB9
FILE: 01 - Hurricane 2000.m4a
  Size: 49644899 Hash: 632BB6609DACA6F9A82887C3DF99A5F4 Accuracy: -m0
  Conclusion: CDDA 100%
  Signature: F826EFC43623CE65F683B27E802DBD14D9852933
Время раздачи: 24/7 (круглосуточно) - до первых 10-ти сидов
[NNM-Club.me]_Scorpions - 2000 - Moment Of Glory.torrent
 Торрент: Платиновая раздача  Зарегистрирован
 
Скачать


Примагнититься
 Зарегистрирован:   29 Авг 2013 14:19:22
 Размер:   561 MB  (
 Рейтинг:   4.9 (Голосов: 34)
 Поблагодарили:   129
 Проверка:   Оформление проверено модератором 29 Авг 2013 15:55:17
Как cкачать  ·  Как раздать  ·  Правильно оформить  ·  Поднять ратио!  
sseless ®
Меломан, Реставратор
Стаж: 9 лет
Сообщений: 3542
Ratio: 1386.827
Раздал: 45.33 TB
Поблагодарили: 160396
100%
north_korea.gif
срня
Стаж: 9 лет 5 мес.
Сообщений: 2
Ratio: 4.266
4.85%
помогите скачать
Nemec555
Стаж: 9 лет 2 мес.
Сообщений: 806
Ratio: 106.827
Раздал: 59.02 TB
Поблагодарили: 2890
100%
Откуда: Берлин
germany.gif
Восстановил доп. сидирование.
Youjin2008
Стаж: 10 лет 5 мес.
Сообщений: 3
Ratio: 19.166
Раздал: 2.611 TB
5.12%
belarus.gif
Может быть делаю что-то не так. Но в некоторых песнях проигрывание прерывается и как бы бросается в другую точку (в частности в первой песне со 2 минуты).
Показать сообщения:   
Начать новую тему   Ответить на тему    Торрент-трекер NNM-Club -> Аудио и Видео -> Музыка Lossless (ALAC) Часовой пояс: GMT + 3
Страница 1 из 1