Классический форум-трекер
canvas not supported
Нас вместе: 4 205 953

Ellie Goulding - Halcyon Days (2CD) (2013) Deluxe Edition [FLAC|Lossless]<Synth-pop, Pop, Electronic>


 
 
RSS
Начать новую тему   Ответить на тему    Торрент-трекер NNM-Club -> Electronic -> Synthpop, New Wave (Lossless)
Автор Сообщение
Pashketan ®
Куратор Музыки
Стаж: 12 лет 10 мес.
Сообщений: 9782
Ratio: 14.668
Поблагодарили: 169041
100%
nnm-club.gif
Ellie Goulding - Halcyon Days (2013)


Год: 2013
Жанр: Synth-pop, Pop, Electronic
Лейбл: Polydor. Made in Canada
Каталог #: 3750663
Продолжительность: 01:46:35
Кодек: FLAC
Тип рипа: tracks + .cue
Битрейт: Lossless

Треклист:
01. Don't Say a Word (4:08)
02. My Blood (3:55)
03. Anything Could Happen (4:47)
04. Only You (3:52)
05. Halcyon (3:24)
06. Figure 8 (4:08)
07. Joy (3:09)
08. Hanging On (3:22)
09. Explosions (4:04)
10. I Know You Care (3:27)
11. Atlantis (3:53)
12. Dead in the Water (4:44)
13. I Need Your Love (3:55)
14. Ritual (3:51)
15. In My City (3:22)
16. Without Your Love (4:20)
17. Hanging On (4:14)
18. Lights (3:33)

Продолжительность: 01:10:08
Код:

Exact Audio Copy V1.0 beta 3 from 29. August 2011

EAC extraction logfile from 30. August 2013, 19:29

Ellie Goulding / Halcyon Days

Used drive  : Optiarc DVD RW AD-7200S   Adapter: 2  ID: 1

Read mode               : Secure
Utilize accurate stream : Yes
Defeat audio cache      : Yes
Make use of C2 pointers : No

Read offset correction                      : 48
Overread into Lead-In and Lead-Out          : No
Fill up missing offset samples with silence : Yes
Delete leading and trailing silent blocks   : No
Null samples used in CRC calculations       : Yes
Used interface                              : Native Win32 interface for Win NT & 2000
Gap handling                                : Appended to previous track

Used output format              : User Defined Encoder
Selected bitrate                : 768 kBit/s
Quality                         : High
Add ID3 tag                     : No
Command line compressor         : C:\Windows\System32\cmd.exe
Additional command line options : /C eac3.cmd %source% "%albumartist%" "%albumtitle%" %year% %tracknr2% %numtracks% "%title%" "%artist%" "%genre%" %cdnumber% %totalcds% "%comment%"

TOC of the extracted CD

     Track |   Start  |  Length  | Start sector | End sector
    ---------------------------------------------------------
        1  |  0:00.00 |  4:07.57 |         0    |    18581
        2  |  4:07.57 |  3:55.37 |     18582    |    36243
        3  |  8:03.19 |  4:46.70 |     36244    |    57763
        4  | 12:50.14 |  3:51.52 |     57764    |    75140
        5  | 16:41.66 |  3:24.36 |     75141    |    90476
        6  | 20:06.27 |  4:07.58 |     90477    |   109059
        7  | 24:14.10 |  3:09.34 |    109060    |   123268
        8  | 27:23.44 |  3:21.57 |    123269    |   138400
        9  | 30:45.26 |  4:03.73 |    138401    |   156698
       10  | 34:49.24 |  3:27.28 |    156699    |   172251
       11  | 38:16.52 |  3:53.13 |    172252    |   189739
       12  | 42:09.65 |  4:43.52 |    189740    |   211016
       13  | 46:53.42 |  3:55.07 |    211017    |   228648
       14  | 50:48.49 |  3:51.12 |    228649    |   245985
       15  | 54:39.61 |  3:21.42 |    245986    |   261102
       16  | 58:01.28 |  4:19.62 |    261103    |   280589
       17  | 62:21.15 |  4:13.73 |    280590    |   299637
       18  | 66:35.13 |  3:32.53 |    299638    |   315590

Track  1

     Filename T:\EACtmp\01 - Don't Say a Word.wav

     Pre-gap length  0:00:02.00

     Peak level 98.7 %
     Extraction speed 2.3 X
     Track quality 100.0 %
     Test CRC CF97DCAA
     Copy CRC CF97DCAA
     Track not present in AccurateRip database
     Copy OK

Track  2

     Filename T:\EACtmp\02 - My Blood.wav

     Peak level 98.7 %
     Extraction speed 2.5 X
     Track quality 100.0 %
     Test CRC 67475AA7
     Copy CRC 67475AA7
     Track not present in AccurateRip database
     Copy OK

Track  3

     Filename T:\EACtmp\03 - Anything Could Happen.wav

     Pre-gap length  0:00:01.07

     Peak level 97.7 %
     Extraction speed 2.8 X
     Track quality 100.0 %
     Test CRC 537DB3D0
     Copy CRC 537DB3D0
     Track not present in AccurateRip database
     Copy OK

Track  4

     Filename T:\EACtmp\04 - Only You.wav

     Pre-gap length  0:00:00.29

     Peak level 98.7 %
     Extraction speed 3.0 X
     Track quality 100.0 %
     Test CRC 167645B2
     Copy CRC 167645B2
     Track not present in AccurateRip database
     Copy OK

Track  5

     Filename T:\EACtmp\05 - Halcyon.wav

     Pre-gap length  0:00:00.43

     Peak level 98.7 %
     Extraction speed 2.7 X
     Track quality 99.9 %
     Test CRC 0EB56C64
     Copy CRC 0EB56C64
     Track not present in AccurateRip database
     Copy OK

Track  6

     Filename T:\EACtmp\06 - Figure 8.wav

     Peak level 94.4 %
     Extraction speed 3.4 X
     Track quality 100.0 %
     Test CRC 003FC25A
     Copy CRC 003FC25A
     Track not present in AccurateRip database
     Copy OK

Track  7

     Filename T:\EACtmp\07 - Joy.wav

     Pre-gap length  0:00:00.37

     Peak level 98.7 %
     Extraction speed 3.4 X
     Track quality 100.0 %
     Test CRC 4050979C
     Copy CRC 4050979C
     Track not present in AccurateRip database
     Copy OK

Track  8

     Filename T:\EACtmp\08 - Hanging On.wav

     Peak level 98.7 %
     Extraction speed 3.5 X
     Track quality 100.0 %
     Test CRC A2BC736C
     Copy CRC A2BC736C
     Track not present in AccurateRip database
     Copy OK

Track  9

     Filename T:\EACtmp\09 - Explosions.wav

     Peak level 98.7 %
     Extraction speed 3.8 X
     Track quality 100.0 %
     Test CRC 099C77E0
     Copy CRC 099C77E0
     Track not present in AccurateRip database
     Copy OK

Track 10

     Filename T:\EACtmp\10 - I Know You Care.wav

     Pre-gap length  0:00:00.04

     Peak level 93.9 %
     Extraction speed 3.8 X
     Track quality 100.0 %
     Test CRC 24533DFB
     Copy CRC 24533DFB
     Track not present in AccurateRip database
     Copy OK

Track 11

     Filename T:\EACtmp\11 - Atlantis.wav

     Pre-gap length  0:00:00.73

     Peak level 98.7 %
     Extraction speed 4.0 X
     Track quality 100.0 %
     Test CRC A07DD81B
     Copy CRC A07DD81B
     Track not present in AccurateRip database
     Copy OK

Track 12

     Filename T:\EACtmp\12 - Dead in the Water.wav

     Pre-gap length  0:00:00.31

     Peak level 95.5 %
     Extraction speed 4.3 X
     Track quality 100.0 %
     Test CRC 2A8A11D9
     Copy CRC 2A8A11D9
     Track not present in AccurateRip database
     Copy OK

Track 13

     Filename T:\EACtmp\13 - I Need Your Love.wav

     Peak level 98.7 %
     Extraction speed 4.3 X
     Track quality 100.0 %
     Test CRC F10C6666
     Copy CRC F10C6666
     Track not present in AccurateRip database
     Copy OK

Track 14

     Filename T:\EACtmp\14 - Ritual.wav

     Pre-gap length  0:00:00.03

     Peak level 98.7 %
     Extraction speed 4.5 X
     Track quality 100.0 %
     Test CRC 6B651363
     Copy CRC 6B651363
     Track not present in AccurateRip database
     Copy OK

Track 15

     Filename T:\EACtmp\15 - In My City.wav

     Pre-gap length  0:00:00.37

     Peak level 98.7 %
     Extraction speed 4.4 X
     Track quality 100.0 %
     Test CRC A6E46F4D
     Copy CRC A6E46F4D
     Track not present in AccurateRip database
     Copy OK

Track 16

     Filename T:\EACtmp\16 - Without Your Love.wav

     Pre-gap length  0:00:01.55

     Peak level 98.7 %
     Extraction speed 4.7 X
     Track quality 100.0 %
     Test CRC ADEB2EF0
     Copy CRC ADEB2EF0
     Track not present in AccurateRip database
     Copy OK

Track 17

     Filename T:\EACtmp\17 - Hanging On.wav

     Peak level 98.7 %
     Extraction speed 4.2 X
     Track quality 99.9 %
     Test CRC 745A3289
     Copy CRC 745A3289
     Track not present in AccurateRip database
     Copy OK

Track 18

     Filename T:\EACtmp\18 - Lights.wav

     Pre-gap length  0:00:00.08

     Peak level 98.7 %
     Extraction speed 4.8 X
     Track quality 100.0 %
     Test CRC BEEF5526
     Copy CRC BEEF5526
     Track not present in AccurateRip database
     Copy OK

None of the tracks are present in the AccurateRip database

No errors occurred

End of status report

---- CUETools DB Plugin V2.1.3

[CTDB TOCID: _JCQt8KpgUo6_o3PVvtD587goW4-] found, Submit result: _JCQt8KpgUo6_o3PVvtD587goW4- has been confirmed
[a0d165f2] (1/1) Accurately ripped

==== Log checksum F27090A9F06E17F49FB94646ECF49D5A46D3F41D0258CDBF3991D1D82901DE9F ====

Код:

-----------------------

DON'T MODIFY THIS FILE

-----------------------

PERFORMER: auCDtect Task Manager, ver. 1.6.0 RC1 build 1.6.0.1
Copyright (c) 2008-2010 y-soft. All rights reserved
http://y-soft.org

ANALYZER: auCDtect: CD records authenticity detector, version 0.8.2
Copyright (c) 2004 Oleg Berngardt. All rights reserved.
Copyright (c) 2004 Alexander Djourik. All rights reserved.

FILE: 10. I Know You Care.flac
  Size: 18429954 Hash: 80CAFA46C9A7ECFEA53620D5E36FEA36 Accuracy: -m0
  Conclusion: CDDA 100%
  Signature: 30C4ABF011E9B84ACA5BDBD0E7C860EB80D44FA5
FILE: 09. Explosions.flac
  Size: 26736923 Hash: D575A1B189E9DB804CB4524C7E630BB1 Accuracy: -m0
  Conclusion: CDDA 100%
  Signature: C10482024F4802D0C07352B24764149B1BDDED0C
FILE: 08. Hanging On.flac
  Size: 23262106 Hash: D81B60E446B926193B55133C14049135 Accuracy: -m0
  Conclusion: CDDA 100%
  Signature: E5DD45489C5C75886C3C752FAFB87C9C0A732086
FILE: 07. Joy.flac
  Size: 20179784 Hash: E6008E89392B1172549D054D29989AF2 Accuracy: -m0
  Conclusion: CDDA 100%
  Signature: 9DCB426BD7154689FF3B3B9845F3AD72580A7BB0
FILE: 06. Figure 8.flac
  Size: 31182669 Hash: 27698AEB7A3D3F5E51ADCA422E84206F Accuracy: -m0
  Conclusion: CDDA 100%
  Signature: 608422D1A8E591F2D7C6C6839A7971692C781EF1
FILE: 05. Halcyon.flac
  Size: 24425429 Hash: 0338C03A26A1E0302A9B9A6E08CDF513 Accuracy: -m0
  Conclusion: CDDA 100%
  Signature: B7D40EDB88D099CB1DCB9FE66FBFDF20B16A4E49
FILE: 04. Only You.flac
  Size: 30410572 Hash: 254C7568EDE0E126C5DCB0BF0FFC042F Accuracy: -m0
  Conclusion: CDDA 100%
  Signature: 786D99CEAE09B43A80D1985DCF5C68BA93E8CA47
FILE: 03. Anything Could Happen.flac
  Size: 37510081 Hash: 6129F9ACF9F0B993C20558FF96724C9D Accuracy: -m0
  Conclusion: CDDA 99%
  Signature: C9ADE038E66969CE3D3105E1C7F2ABD905F2ACC6
FILE: 02. My Blood.flac
  Size: 29188061 Hash: D2A891AC001CE2DEEE6FBA91EA817D3B Accuracy: -m0
  Conclusion: CDDA 100%
  Signature: 5E8F57903A62B6B899F510E5AD6C87C095A3F2CE
FILE: 01. Don't Say a Word.flac
  Size: 27834988 Hash: A7761F4EEBC30A349A9032566D39F4F5 Accuracy: -m0
  Conclusion: CDDA 100%
  Signature: 53C7A8341556F5A21299F80CF385A90AECDBD6D6
FILE: 18. Lights.flac
  Size: 26269973 Hash: 9A58ECEDA4F703EB62B0E826B5B50A1C Accuracy: -m0
  Conclusion: CDDA 100%
  Signature: 53843D5517A3EDA03158AFCB1065773D4ED4A6A8
FILE: 17. Hanging On.flac
  Size: 28954656 Hash: 96115EC9B5F7B58F1B629F91136C80F3 Accuracy: -m0
  Conclusion: CDDA 100%
  Signature: 6509C0223BA422353BAB2E17D0CE1FF8F7505120
FILE: 16. Without Your Love.flac
  Size: 33300880 Hash: 2612AFBB52E3090DA9165658F0605D9D Accuracy: -m0
  Conclusion: CDDA 100%
  Signature: AAC611C7E18B47629E0C4022C9BBB7E0BDADF1E1
FILE: 15. In My City.flac
  Size: 24585985 Hash: F0FBA7E47B2D08881DE7213164ACEBE1 Accuracy: -m0
  Conclusion: CDDA 100%
  Signature: D6A582557DD92E9B8D56258E1A28F31EC63DD0CD
FILE: 14. Ritual.flac
  Size: 31648982 Hash: C2D4CA74230754B21DBF084CD6F9040F Accuracy: -m0
  Conclusion: CDDA 100%
  Signature: 76222AE609358B91541A58D87233CF7212DC28D8
FILE: 13. I Need Your Love.flac
  Size: 30881950 Hash: FFD80326F727BA10C90F5DA36365681C Accuracy: -m0
  Conclusion: CDDA 100%
  Signature: C3043B64E329F02479CD50F8DF96B34EA8D09800
FILE: 12. Dead in the Water.flac
  Size: 30700306 Hash: CA970AD00696E2F52F424AB230071CCC Accuracy: -m0
  Conclusion: CDDA 100%
  Signature: 1AE6A9D31AE95F82B2A64C9DDCB780A08CEA783B
FILE: 11. Atlantis.flac
  Size: 27203169 Hash: 47D58039080DF8B1DE89F0FFC3637A5B Accuracy: -m0
  Conclusion: CDDA 100%
  Signature: 4107096D3FC859D094F789359CBC22127C35C186

Код:

REM GENRE Pop
REM DATE 2013
REM DISCID 07106F12
REM COMMENT "Ripped with EAC1.0b3"
PERFORMER "Ellie Goulding"
TITLE "Halcyon Days (CD1)"
FILE "01. Don't Say a Word.flac" WAVE
  TRACK 01 AUDIO
    TITLE "Don't Say a Word"
    PERFORMER "Ellie Goulding"
    ISRC GBUM71205270
    INDEX 01 00:00:00
FILE "02. My Blood.flac" WAVE
  TRACK 02 AUDIO
    TITLE "My Blood"
    PERFORMER "Ellie Goulding"
    ISRC GBUM71205271
    INDEX 01 00:00:00
FILE "03. Anything Could Happen.flac" WAVE
  TRACK 03 AUDIO
    TITLE "Anything Could Happen"
    PERFORMER "Ellie Goulding"
    ISRC GBUM71205026
    INDEX 01 00:00:00
FILE "04. Only You.flac" WAVE
  TRACK 04 AUDIO
    TITLE "Only You"
    PERFORMER "Ellie Goulding"
    ISRC GBUM71205273
    INDEX 01 00:00:00
FILE "05. Halcyon.flac" WAVE
  TRACK 05 AUDIO
    TITLE Halcyon
    PERFORMER "Ellie Goulding"
    ISRC GBUM71205222
    INDEX 01 00:00:00
FILE "06. Figure 8.flac" WAVE
  TRACK 06 AUDIO
    TITLE "Figure 8"
    PERFORMER "Ellie Goulding"
    ISRC GBUM71205353
    INDEX 01 00:00:00
FILE "07. Joy.flac" WAVE
  TRACK 07 AUDIO
    TITLE Joy
    PERFORMER "Ellie Goulding"
    ISRC GBUM71205282
    INDEX 01 00:00:00
FILE "08. Hanging On.flac" WAVE
  TRACK 08 AUDIO
    TITLE "Hanging On"
    PERFORMER "Ellie Goulding"
    ISRC GBUM71204893
    INDEX 01 00:00:00
FILE "09. Explosions.flac" WAVE
  TRACK 09 AUDIO
    TITLE Explosions
    PERFORMER "Ellie Goulding"
    ISRC GBUM71205062
    INDEX 01 00:00:00
FILE "10. I Know You Care.flac" WAVE
  TRACK 10 AUDIO
    TITLE "I Know You Care"
    PERFORMER "Ellie Goulding"
    ISRC GBUM71203327
    INDEX 01 00:00:00
FILE "11. Atlantis.flac" WAVE
  TRACK 11 AUDIO
    TITLE Atlantis
    PERFORMER "Ellie Goulding"
    ISRC GBUM71205283
    INDEX 01 00:00:00
FILE "12. Dead in the Water.flac" WAVE
  TRACK 12 AUDIO
    TITLE "Dead in the Water"
    PERFORMER "Ellie Goulding"
    ISRC GBUM71205356
    INDEX 01 00:00:00
FILE "13. I Need Your Love.flac" WAVE
  TRACK 13 AUDIO
    TITLE "I Need Your Love"
    PERFORMER "Calvin Harris feat. Ellie Goulding"
    ISRC GBARL1201390
    INDEX 01 00:00:00
FILE "14. Ritual.flac" WAVE
  TRACK 14 AUDIO
    TITLE Ritual
    PERFORMER "Ellie Goulding"
    ISRC GBUM71205730
    INDEX 01 00:00:00
FILE "15. In My City.flac" WAVE
  TRACK 15 AUDIO
    TITLE "In My City"
    PERFORMER "Ellie Goulding"
    ISRC GBUM71205355
    INDEX 01 00:00:00
FILE "16. Without Your Love.flac" WAVE
  TRACK 16 AUDIO
    TITLE "Without Your Love"
    PERFORMER "Ellie Goulding"
    ISRC GBUM71205352
    INDEX 01 00:00:00
FILE "17. Hanging On.flac" WAVE
  TRACK 17 AUDIO
    TITLE "Hanging On"
    PERFORMER "Ellie Goulding feat. Tinie Tempah"
    ISRC GBUM71205765
    INDEX 01 00:00:00
FILE "18. Lights.flac" WAVE
  TRACK 18 AUDIO
    TITLE Lights
    PERFORMER "Ellie Goulding"
    ISRC GBUM71028043
    INDEX 01 00:00:00
Код:

[CUETools log; Date: 08.09.2013 10:05:38; Version: 2.1.4]
[CTDB TOCID: _JCQt8KpgUo6_o3PVvtD587goW4-] found.
Track | CTDB Status
  1   | (3/3) Accurately ripped
  2   | (3/3) Accurately ripped
  3   | (3/3) Accurately ripped
  4   | (3/3) Accurately ripped
  5   | (3/3) Accurately ripped
  6   | (3/3) Accurately ripped
  7   | (3/3) Accurately ripped
  8   | (3/3) Accurately ripped
  9   | (3/3) Accurately ripped
 10   | (3/3) Accurately ripped
 11   | (3/3) Accurately ripped
 12   | (3/3) Accurately ripped
 13   | (3/3) Accurately ripped
 14   | (3/3) Accurately ripped
 15   | (3/3) Accurately ripped
 16   | (3/3) Accurately ripped
 17   | (3/3) Accurately ripped
 18   | (3/3) Accurately ripped
[AccurateRip ID: 002dee9b-02625d3f-07106f12] found.
Track   [  CRC   |   V2   ] Status
 01     [6f2c98af|bdc08f08] (0+2/2) Accurately ripped
 02     [7ca2e58b|9f58de37] (0+2/2) Accurately ripped
 03     [93edab23|a2b1bf4b] (0+2/2) Accurately ripped
 04     [db0c78ac|f14df961] (0+2/2) Accurately ripped
 05     [a55a1179|a13a06d1] (0+2/2) Accurately ripped
 06     [c37d4f89|096cd9a2] (0+2/2) Accurately ripped
 07     [1b1f8b40|ddeb0ee0] (0+2/2) Accurately ripped
 08     [4d8f961c|22246b67] (0+2/2) Accurately ripped
 09     [d65fbd55|9b2d584e] (0+2/2) Accurately ripped
 10     [44d4d9f6|1b012d2b] (0+2/2) Accurately ripped
 11     [e5915ba1|89dfce90] (0+2/2) Accurately ripped
 12     [93acc3f3|6ac78e6f] (0+2/2) Accurately ripped
 13     [0602cfbd|ccbc101a] (0+2/2) Accurately ripped
 14     [e7ca85fd|eb91e7af] (0+2/2) Accurately ripped
 15     [813597b8|f6d04bef] (0+2/2) Accurately ripped
 16     [ce1f5edf|5a117a03] (0+2/2) Accurately ripped
 17     [3e3f534c|3b9fe6c6] (0+2/2) Accurately ripped
 18     [62e0fb1e|c9404786] (0+2/2) Accurately ripped

Track Peak [ CRC32  ] [W/O NULL] [  LOG   ]
 --   98,7 [679654CC] [93F0F3BF]
 01   98,7 [CF97DCAA] [4E0197C0]   CRC32
 02   98,7 [67475AA7] [1B8992F7]   CRC32
 03   97,7 [537DB3D0] [05B872DF]   CRC32
 04   98,7 [167645B2] [CF99AF26]   CRC32
 05   98,7 [0EB56C64] [F0106DD4]   CRC32
 06   94,4 [003FC25A] [19B8BA30]   CRC32
 07   98,7 [4050979C] [6D998746]   CRC32
 08   98,7 [A2BC736C] [3FAA416D]   CRC32
 09   98,7 [099C77E0] [EAED0919]   CRC32
 10   93,9 [24533DFB] [6D50BB81]   CRC32
 11   98,7 [A07DD81B] [9155B0C5]   CRC32
 12   95,5 [2A8A11D9] [0AF63012]   CRC32
 13   98,7 [F10C6666] [4F243B44]   CRC32
 14   98,7 [6B651363] [6DC454A4]   CRC32
 15   98,7 [A6E46F4D] [339F4BD2]   CRC32
 16   98,7 [ADEB2EF0] [2D19B589]   CRC32
 17   98,7 [745A3289] [1BEA23C8]   CRC32
 18   98,7 [BEEF5526] [9C016125]   CRC32

Треклист:
01. Burn (3:52)
02. Goodness Gracious (3:49)
03. You, My Everything (3:29)
04. Hearts Without Chains (3:47)
05. Stay Awake (3:26)
06. Under Control (4:07)
07. Flashlight (3:36)
08. How Long Will I Love You (2:36)
09. Tessellate (3:57)
10. Midas Touch (3:48)

Продолжительность: 00:36:27
Код:

Exact Audio Copy V1.0 beta 3 from 29. August 2011

EAC extraction logfile from 30. August 2013, 20:32

Ellie Goulding / Halcyon Days

Used drive  : Optiarc DVD RW AD-7200S   Adapter: 2  ID: 1

Read mode               : Secure
Utilize accurate stream : Yes
Defeat audio cache      : Yes
Make use of C2 pointers : No

Read offset correction                      : 48
Overread into Lead-In and Lead-Out          : No
Fill up missing offset samples with silence : Yes
Delete leading and trailing silent blocks   : No
Null samples used in CRC calculations       : Yes
Used interface                              : Native Win32 interface for Win NT & 2000
Gap handling                                : Appended to previous track

Used output format              : User Defined Encoder
Selected bitrate                : 768 kBit/s
Quality                         : High
Add ID3 tag                     : No
Command line compressor         : C:\Windows\System32\cmd.exe
Additional command line options : /C eac3.cmd %source% "%albumartist%" "%albumtitle%" %year% %tracknr2% %numtracks% "%title%" "%artist%" "%genre%" %cdnumber% %totalcds% "%comment%"

TOC of the extracted CD

     Track |   Start  |  Length  | Start sector | End sector
    ---------------------------------------------------------
        1  |  0:00.00 |  3:52.28 |         0    |    17427
        2  |  3:52.28 |  3:48.65 |     17428    |    34592
        3  |  7:41.18 |  3:28.45 |     34593    |    50237
        4  | 11:09.63 |  3:46.68 |     50238    |    67255
        5  | 14:56.56 |  3:26.25 |     67256    |    82730
        6  | 18:23.06 |  4:07.24 |     82731    |   101279
        7  | 22:30.30 |  3:35.50 |    101280    |   117454
        8  | 26:06.05 |  2:35.63 |    117455    |   129142
        9  | 28:41.68 |  3:57.21 |    129143    |   146938
       10  | 32:39.14 |  3:47.60 |    146939    |   164023

Track  1

     Filename T:\EACtmp\01 - Burn.wav

     Pre-gap length  0:00:02.00

     Peak level 98.7 %
     Extraction speed 2.0 X
     Track quality 99.9 %
     Test CRC 94AC7D59
     Copy CRC 94AC7D59
     Track not present in AccurateRip database
     Copy OK

Track  2

     Filename T:\EACtmp\02 - Goodness Gracious.wav

     Peak level 98.5 %
     Extraction speed 2.6 X
     Track quality 100.0 %
     Test CRC 6724DC46
     Copy CRC 6724DC46
     Track not present in AccurateRip database
     Copy OK

Track  3

     Filename T:\EACtmp\03 - You, My Everything.wav

     Pre-gap length  0:00:01.55

     Peak level 98.7 %
     Extraction speed 2.7 X
     Track quality 100.0 %
     Test CRC 119B04AE
     Copy CRC 119B04AE
     Track not present in AccurateRip database
     Copy OK

Track  4

     Filename T:\EACtmp\04 - Hearts Without Chains.wav

     Peak level 98.7 %
     Extraction speed 3.0 X
     Track quality 100.0 %
     Test CRC 6DA8953A
     Copy CRC 6DA8953A
     Track not present in AccurateRip database
     Copy OK

Track  5

     Filename T:\EACtmp\05 - Stay Awake.wav

     Pre-gap length  0:00:00.55

     Peak level 95.5 %
     Extraction speed 3.1 X
     Track quality 100.0 %
     Test CRC BB7C2C7E
     Copy CRC BB7C2C7E
     Track not present in AccurateRip database
     Copy OK

Track  6

     Filename T:\EACtmp\06 - Under Control.wav

     Pre-gap length  0:00:00.13

     Peak level 98.7 %
     Extraction speed 3.0 X
     Track quality 99.9 %
     Test CRC 78559BA4
     Copy CRC 78559BA4
     Track not present in AccurateRip database
     Copy OK

Track  7

     Filename T:\EACtmp\07 - Flashlight.wav

     Pre-gap length  0:00:00.67

     Peak level 87.1 %
     Extraction speed 3.5 X
     Track quality 100.0 %
     Test CRC B7B2C4B4
     Copy CRC B7B2C4B4
     Track not present in AccurateRip database
     Copy OK

Track  8

     Filename T:\EACtmp\08 - How Long Will I Love You.wav

     Pre-gap length  0:00:01.58

     Peak level 98.7 %
     Extraction speed 3.4 X
     Track quality 100.0 %
     Test CRC 604B2C75
     Copy CRC 604B2C75
     Track not present in AccurateRip database
     Copy OK

Track  9

     Filename T:\EACtmp\09 - Tessellate.wav

     Pre-gap length  0:00:01.13

     Peak level 98.7 %
     Extraction speed 3.8 X
     Track quality 100.0 %
     Test CRC FF371C33
     Copy CRC FF371C33
     Track not present in AccurateRip database
     Copy OK

Track 10

     Filename T:\EACtmp\10 - Midas Touch.wav

     Pre-gap length  0:00:00.07

     Peak level 98.7 %
     Extraction speed 3.9 X
     Track quality 100.0 %
     Test CRC 52FAD598
     Copy CRC 52FAD598
     Track not present in AccurateRip database
     Copy OK

None of the tracks are present in the AccurateRip database

No errors occurred

End of status report

---- CUETools DB Plugin V2.1.3

[CTDB TOCID: TngrIW0hPPUKItaaHNyh6P3hs.c-] found, Submit result: TngrIW0hPPUKItaaHNyh6P3hs.c- has been confirmed
[f026047a] (2/3) Accurately ripped
[175a6658] (1/3) No match

==== Log checksum 7D7F4D6064472C63A50F5A2883F889C4A6DA192C820B3207233CFE9AD0C89B66 ====

Код:

-----------------------

DON'T MODIFY THIS FILE

-----------------------

PERFORMER: auCDtect Task Manager, ver. 1.6.0 RC1 build 1.6.0.1
Copyright (c) 2008-2010 y-soft. All rights reserved
http://y-soft.org

ANALYZER: auCDtect: CD records authenticity detector, version 0.8.2
Copyright (c) 2004 Oleg Berngardt. All rights reserved.
Copyright (c) 2004 Alexander Djourik. All rights reserved.

FILE: 05. Stay Awake.flac
  Size: 28622408 Hash: 81ECA6AA3AD9E6CE3C7C0D93C232AA46 Accuracy: -m0
  Conclusion: CDDA 100%
  Signature: 184EC093C0CE8CAEF552C3D2E1B1D03D1A71E589
FILE: 04. Hearts Without Chains.flac
  Size: 24542651 Hash: DED0BCB0CBFBA7E114EFDDCEF761A73D Accuracy: -m0
  Conclusion: CDDA 100%
  Signature: 1F766EEE0C98F2C224B28C33A9A99C4A8C2E3504
FILE: 03. You, My Everything.flac
  Size: 27567779 Hash: DEDBEF7940F7834B92C56BACF6153E6D Accuracy: -m0
  Conclusion: CDDA 100%
  Signature: CCEFE93E04C9CDE682289412B6EE67BE2C5304F5
FILE: 02. Goodness Gracious.flac
  Size: 29937337 Hash: 54AB5BEFD46DE480277478B6C22B9F9C Accuracy: -m0
  Conclusion: CDDA 100%
  Signature: BD32F38C26470DC84B5793566968C1FF593F4F02
FILE: 01. Burn.flac
  Size: 30141113 Hash: 0EBB8CA8E90ECB25C9AF857D30EFF72E Accuracy: -m0
  Conclusion: CDDA 100%
  Signature: 9748B2EC6F5847906B3B782659E639A01EEC327C
FILE: 10. Midas Touch.flac
  Size: 29106928 Hash: 2F996B18E9491F0A31A062C0B08DC8C7 Accuracy: -m0
  Conclusion: CDDA 100%
  Signature: 8B2BD78BC9804D20CD90B4C0B3C8EFC0E9FAC228
FILE: 09. Tessellate.flac
  Size: 22716084 Hash: 35817E16A4D3F6C2643FE21FF84B815C Accuracy: -m0
  Conclusion: CDDA 100%
  Signature: 4A4B21F48938342C01A7798D674B81BE1DF7E349
FILE: 08. How Long Will I Love You.flac
  Size: 15121671 Hash: D6E2E64D778014F5B8E06057FB044E0F Accuracy: -m0
  Conclusion: CDDA 100%
  Signature: 2B5698DC3F0DD43D2695CE686AE23A4C769F4F1E
FILE: 07. Flashlight.flac
  Size: 28627952 Hash: 54FE89ED1D2B264F2651CE88EB4394B0 Accuracy: -m0
  Conclusion: CDDA 99%
  Signature: A8AFB3896E48B12E5D472C9B4473D8E21F474E57
FILE: 06. Under Control.flac
  Size: 31815269 Hash: AA6070BA5B353F9E07E8793B77B51FC0 Accuracy: -m0
  Conclusion: CDDA 99%
  Signature: DB094C31AE8BFAA88E6060FCE92272213A3E52CA

Код:

REM GENRE Pop
REM DATE 2013
REM DISCID 83088A0A
REM COMMENT "Ripped with EAC1.0b3"
PERFORMER "Ellie Goulding"
TITLE "Halcyon Days (CD2)"
FILE "01. Burn.flac" WAVE
  TRACK 01 AUDIO
    TITLE Burn
    PERFORMER "Ellie Goulding"
    ISRC GBUM71303482
    INDEX 01 00:00:00
FILE "02. Goodness Gracious.flac" WAVE
  TRACK 02 AUDIO
    TITLE "Goodness Gracious"
    PERFORMER "Ellie Goulding"
    ISRC GBUM71304065
    INDEX 01 00:00:00
FILE "03. You, My Everything.flac" WAVE
  TRACK 03 AUDIO
    TITLE "You, My Everything"
    PERFORMER "Ellie Goulding"
    ISRC GBUM71303873
    INDEX 01 00:00:00
FILE "04. Hearts Without Chains.flac" WAVE
  TRACK 04 AUDIO
    TITLE "Hearts Without Chains"
    PERFORMER "Ellie Goulding"
    ISRC GBUM71303829
    INDEX 01 00:00:00
FILE "05. Stay Awake.flac" WAVE
  TRACK 05 AUDIO
    TITLE "Stay Awake"
    PERFORMER "Ellie Goulding & Madeon"
    ISRC GBUM71205874
    INDEX 01 00:00:00
FILE "06. Under Control.flac" WAVE
  TRACK 06 AUDIO
    TITLE "Under Control"
    PERFORMER "Ellie Goulding"
    ISRC GBUM71205357
    INDEX 01 00:00:00
FILE "07. Flashlight.flac" WAVE
  TRACK 07 AUDIO
    TITLE Flashlight
    PERFORMER "Ellie Goulding & DJ Fresh"
    ISRC GBCEN1300603
    INDEX 01 00:00:00
FILE "08. How Long Will I Love You.flac" WAVE
  TRACK 08 AUDIO
    TITLE "How Long Will I Love You"
    PERFORMER "Ellie Goulding"
    ISRC GBUM71304067
    INDEX 01 00:00:00
FILE "09. Tessellate.flac" WAVE
  TRACK 09 AUDIO
    TITLE Tessellate
    PERFORMER "Ellie Goulding"
    ISRC GBUM71304068
    INDEX 01 00:00:00
FILE "10. Midas Touch.flac" WAVE
  TRACK 10 AUDIO
    TITLE "Midas Touch"
    PERFORMER "Ellie Goulding X Burns"
    ISRC GBUM71304069
    INDEX 01 00:00:00
Код:

[CUETools log; Date: 08.09.2013 10:08:43; Version: 2.1.4]
[CTDB TOCID: TngrIW0hPPUKItaaHNyh6P3hs.c-] found.
Track | CTDB Status
  1   | ( 3/10) Accurately ripped
  2   | ( 4/10) Accurately ripped
  3   | ( 4/10) Accurately ripped
  4   | ( 4/10) Accurately ripped
  5   | ( 4/10) Accurately ripped
  6   | ( 4/10) Accurately ripped
  7   | ( 4/10) Accurately ripped
  8   | ( 4/10) Accurately ripped
  9   | ( 4/10) Accurately ripped
 10   | ( 4/10) Accurately ripped
[AccurateRip ID: 000de6ef-006ebadb-83088a0a] found.
Track   [  CRC   |   V2   ] Status
 01     [55940a53|5e8f8bb0] (0+2/2) Accurately ripped
 02     [9a0c8864|d6ba2063] (0+2/2) Accurately ripped
 03     [497e2e62|d14d5d98] (0+2/2) Accurately ripped
 04     [63bf26a0|fa59f816] (0+2/2) Accurately ripped
 05     [d562bc4a|863aa980] (0+2/2) Accurately ripped
 06     [8b3c99da|2ef5fcd2] (0+2/2) Accurately ripped
 07     [e14caa1e|f4561cbe] (0+2/2) Accurately ripped
 08     [da57fc23|90bb5948] (0+2/2) Accurately ripped
 09     [a5654f7c|030792b5] (0+2/2) Accurately ripped
 10     [13f00476|db109c86] (0+2/2) Accurately ripped

Track Peak [ CRC32  ] [W/O NULL] [  LOG   ]
 --   98,7 [4562852F] [5D5EF024]
 01   98,7 [94AC7D59] [F8100841]   CRC32
 02   98,5 [6724DC46] [6DC264B9]   CRC32
 03   98,7 [119B04AE] [7FFB9B5E]   CRC32
 04   98,7 [6DA8953A] [1CCCE8A6]   CRC32
 05   95,5 [BB7C2C7E] [C514A509]   CRC32
 06   98,7 [78559BA4] [551E9063]   CRC32
 07   87,1 [B7B2C4B4] [71F2CC67]   CRC32
 08   98,7 [604B2C75] [85116EC4]   CRC32
 09   98,7 [FF371C33] [4C51A565]   CRC32
 10   98,7 [52FAD598] [2A5C0770]   CRC32

Время раздачи: 24/7 (круглосуточно)
[NNM-Club.me]_Ellie Goulding - Halcyon Days (Deluxe Edition) [2CD] (2013).torrent
 Торрент: Платиновая раздача  Зарегистрирован
 
Скачать


Примагнититься
 Зарегистрирован:   08 Сен 2013 09:11:57
 Размер:   735 MB  (
 Рейтинг:   4.8 (Голосов: 41)
 Поблагодарили:   140
 Проверка:   Оформление проверено модератором 08 Сен 2013 11:45:51
Как cкачать  ·  Как раздать  ·  Правильно оформить  ·  Поднять ратио!  
xiaolong
Стаж: 9 лет 2 мес.
Сообщений: 2
Ratio: 2.56
88.89%
Thanks!!
Показать сообщения:   
Начать новую тему   Ответить на тему    Торрент-трекер NNM-Club -> Electronic -> Synthpop, New Wave (Lossless) Часовой пояс: GMT + 3
Страница 1 из 1