Классический форум-трекер
canvas not supported
Нас вместе: 4 233 683

Коп с топором / Axe Cop (2013) HDTVRip (6 серий из 6)


 
 
RSS
Начать новую тему   Ответить на тему    Торрент-трекер NNM-Club -> Архив торрентов -> Архив Мультфильмов
Автор Сообщение
Marioxo ®
Стаж: 11 лет 6 мес.
Сообщений: 61
Ratio: 8.309
Раздал: 3.58 TB
Поблагодарили: 10500
100%
russia.gif
Коп с топором / Axe Cop (2013) HDTVRip
Русское название: Коп с топором
Оригинальное название: Axe Cop
Год выпуска: 2013
Жанр: Мультфильм, боевик, комедия, не для Детей!

Описание:
История о приключениях полицейского, который предпочитает в бою работать топором. Он грубый, жестокий человек, посвятивший себя убийству плохих парней.

Режиссер: Бен Джонс / Ben Jones
Персонажи: Кен Марино, Ник Офферман, Меган Маллалли, Роб Хюбел, Пэттон Освальт, Питер Серафинович, Джеймс Адомиан,Тодд Бэрри, Винсент Картайзер, Этан Николль



Продолжительность: 6 серий по ~00:10:00
Перевод: Одноголосый закадровый
Автор перевода: КетчупТВ
Язык субтитров: Отсутствуют

Качество видео: HDTVRip
Видеокодек: Xvid
Битрейт видео: ~1625K bps
Размер кадра: 720x400
Аудиокодек: MP3 2.0
Битрейт аудио: 192 Kbps
1. Ночная миссия: Возвращение украденных друзей
2. Зомби-Остров ... в Космосе
3. Американская История
4. Няня для Едино-малышки
5. Месяц рождения
6. Кролик, который нарушил все правила
Общее
Полное имя : D:\Торренты на раздачу\Коп с топором\Axe_Cop\Axe_Cop_1.avi
Формат : AVI
Формат/Информация : Audio Video Interleave
Размер файла : 137 Мбайт
Продолжительность : 10 м.
Общий поток : 1827 Кбит/сек
Программа кодирования : VirtualDubMod 1.5.10.2 (build 2540/release)
Библиотека кодирования : VirtualDubMod build 2540/release

Видео
Идентификатор : 0
Формат : MPEG-4 Visual
Профиль формата : Simple@L3
Параметр BVOP формата : Нет
Параметр QPel формата : Нет
Параметр GMC формата : Без точки перехода
Параметр матрицы формата : Default (H.263)
Идентификатор кодека : XVID
Идентификатор кодека/Подсказка : XviD
Продолжительность : 10 м.
Битрейт : 1625 Кбит/сек
Ширина : 720 пикселей
Высота : 400 пикселей
Соотношение сторон : 16:9
Соотношение сторон в оригинале : 16:9
Частота кадров : 23,976 кадра/сек
Цветовое пространство : YUV
Субдискретизация насыщенности : 4:2:0
Битовая глубина : 8 бит
Тип развёртки : Прогрессивная
Метод сжатия : С потерями
Бит/(Пиксели*Кадры) : 0.235
Размер потока : 122 Мбайт (89%)
Библиотека кодирования : XviD 63

Аудио
Идентификатор : 1
Формат : MPEG Audio
Версия формата : Version 1
Профиль формата : Layer 3
Режим : Joint stereo
Расширение режима : MS Stereo
Идентификатор кодека : 55
Идентификатор кодека/Подсказка : MP3
Продолжительность : 10 м.
Вид битрейта : Постоянный
Битрейт : 192 Кбит/сек
Каналы : 2 канала
Частота : 48,0 КГц
Метод сжатия : С потерями
Размер потока : 14,4 Мбайт (11%)
Выравнивание : Разделение по промежуткам
Продолжительность промежутка : 42 мс. (1,00 видеокадр)
Время предзагрузки промежутка : 500 мс.
Библиотека кодирования : LAME3.97
Скриншоты:


Все релизы "Коп с топором" на сайте

Время раздачи: ~ С 14:00 до 03:00 (10-15 скачавших)
[NNM-Club.me]_Axe_Cop.torrent
 Торрент:   Зарегистрирован
 
Зарегистрируйтесь и скачайте торрент!
16 KB

Примагнититься
 Зарегистрирован:   09 Сен 2013 23:03:24
 Размер:   783 MB  (
 Рейтинг:   4.7 (Голосов: 15)
 Поблагодарили:   37
 Проверка:   Оформление проверено модератором 10 Сен 2013 17:37:09
Как cкачать  ·  Как раздать  ·  Правильно оформить  ·  Поднять ратио!  
Топик был перенесен из форума Зарубежные Мультсериалы в форум Архив Мультфильмов

Причина переноса: Отсутствие сида на протяжении 6 месяцев.
Seeder last seen: 2016-06-24


Исправил релиз - напиши ЛС almikl, дав ссылку на релиз.
Если нет ответа 24 часа - нажми на кнопку "Обратить внимание модераторов".
Показать сообщения:   
Начать новую тему   Ответить на тему    Торрент-трекер NNM-Club -> Архив торрентов -> Архив Мультфильмов Часовой пояс: GMT + 3
Страница 1 из 1