Классический форум-трекер
canvas not supported
Нас вместе: 4 234 972

Кровью и потом: Анаболики / Pain & Gain (2013) BDRip [576p] iPad


 
 
RSS
Начать новую тему   Ответить на тему    Торрент-трекер NNM-Club -> Аудио и Видео -> Зарубежное видео для устройств Apple
Автор Сообщение
shax87 ®
Стаж: 13 лет 3 мес.
Сообщений: 215
Ratio: 446.069
Раздал: 25.16 TB
Поблагодарили: 18023
100%
Откуда: Санкт-Петербург
russia.gif
Кровью и потом: Анаболики / Pain & Gain (2013) BDRip [576p] iPad
Русское название: Кровью и потом: Анаболики
Оригинальное название: Pain & Gain
Год: 2013
Страна: США
Жанр: криминал, комедия, триллер, боевик

Продолжительность: 02:09:36
Перевод: Профессиональный дублированный
Оригинальная аудиодорожка: английская
Субтитры: нет
Навигация по главам: есть

Режиссёр: Майкл Бэй
Сценарий: Кристофер Маркус, Стивен МакФили, Пит Коллинз
В ролях: Марк Уолберг, Дуэйн Джонсон, Энтони Маки, Тони Шэлуб, Эд Харрис, Роб Кордри, Ребел Уилсон, Бар Пали, Кен Жонг, Майкл Рисполи

Описание: Однажды тренеру по фитнесу надоело ходить в трениках. Он решил круто изменить свою судьбу и разбогатеть. Нашел двух других незадачливых качков и предложил им план похищения своего клиента-миллионера. Но если в организме мышц больше, чем мозгов, то даже самый лучший план, подсмотренный в экшен-боевике, может не сработать…



Качество видео: BDRip
Исходник: Blu-ray disc
Формат: MP4 (контейнер m4v)
Видео: AVC, 1024x424 (2.40:1) at 23.976 fps, AVC at 2762 kbps avg, 0.265 bit/pixel
Аудио: 48 kHz, AAC, 2ch, 128 Kbps | Русский | Дублированный
Аудио: 48 kHz, AAC, 2ch, 128 Kbps | Английский | Оригинальный
Общее
Полное имя : F:\Downloads\Pain & Gain.2013.BDRip.iPad.m4v
Формат : MPEG-4
Профиль формата : Base Media / Version 2
Идентификатор кодека : mp42
Размер файла : 2,75 Гбайт
Продолжительность : 2 ч. 9 м.
Режим общего битрейта : Переменный
Общий поток : 3033 Кбит/сек
Название фильма : Кровью и потом: Анаболики
Исполнитель : Michael Bay
Жанр : Comedy
Дата записи : UTC 2013-04-11 07:00:00
Дата кодирования : UTC 2013-09-13 00:10:14
Дата пометки : UTC 2013-09-14 09:04:38
Программа кодирования : HandBrake 0.9.8 2012071700

Видео
Идентификатор : 1
Формат : AVC
Формат/Информация : Advanced Video Codec
Профиль формата : High@L3.1
Параметр CABAC формата : Да
Параметр ReFrames формата : 8 кадров
Идентификатор кодека : avc1
Идентификатор кодека/Информация : Advanced Video Coding
Продолжительность : 2 ч. 9 м.
Вид битрейта : Переменный
Битрейт : 2762 Кбит/сек
Ширина : 1024 пикселя
Высота : 424 пикселя
Соотношение сторон : 2,40:1
Режим частоты кадров : Переменный
Частота кадров : 23,976 кадра/сек
Минимальная частота кадров : 23,968 кадра/сек
Максимальная частота кадров : 23,981 кадра/сек
Цветовое пространство : YUV
Субдискретизация насыщенности : 4:2:0
Битовая глубина : 8 бит
Тип развёртки : Прогрессивная
Бит/(Пиксели*Кадры) : 0.265
Размер потока : 2,50 Гбайт (91%)
Библиотека кодирования : x264 core 120
Настройки программы : cabac=1 / ref=9 / deblock=1:-1:-1 / analyse=0x3:0x133 / me=umh / subme=9 / psy=1 / psy_rd=1.00:0.15 / mixed_ref=1 / me_range=32 / chroma_me=1 / trellis=2 / 8x8dct=1 / cqm=0 / deadzone=21,11 / fast_pskip=1 / chroma_qp_offset=-3 / threads=6 / sliced_threads=0 / nr=0 / decimate=1 / interlaced=0 / bluray_compat=0 / constrained_intra=0 / bframes=9 / b_pyramid=1 / b_adapt=2 / b_bias=0 / direct=1 / weightb=1 / open_gop=0 / weightp=2 / keyint=240 / keyint_min=24 / scenecut=40 / intra_refresh=0 / rc_lookahead=40 / rc=crf / mbtree=1 / crf=18.0 / qcomp=0.60 / qpmin=3 / qpmax=69 / qpstep=4 / ip_ratio=1.40 / aq=1:0.90
Дата кодирования : UTC 2013-09-13 00:10:14
Дата пометки : UTC 2013-09-13 04:07:05
Основные цвета : BT.709
Характеристики трансфера : BT.709
Коэффициенты матрицы : BT.709

Аудио #1
Идентификатор : 2
Формат : AAC
Формат/Информация : Advanced Audio Codec
Профиль формата : LC
Идентификатор кодека : 40
Продолжительность : 2 ч. 9 м.
Вид битрейта : Переменный
Битрейт : 128 Кбит/сек
Максимальный битрейт : 233 Кбит/сек
Каналы : 2 канала
Расположение каналов : Front: L R
Частота : 48,0 КГц
Метод сжатия : С потерями
Задержка видео : 83 мс.
Размер потока : 119 Мбайт (4%)
Язык : Russian
Дата кодирования : UTC 2013-09-13 00:10:14
Дата пометки : UTC 2013-09-13 04:07:03

Аудио #2
Идентификатор : 3
Формат : AAC
Формат/Информация : Advanced Audio Codec
Профиль формата : LC
Идентификатор кодека : 40
Продолжительность : 2 ч. 9 м.
Вид битрейта : Переменный
Битрейт : 128 Кбит/сек
Максимальный битрейт : 214 Кбит/сек
Каналы : 2 канала
Расположение каналов : Front: L R
Частота : 48,0 КГц
Метод сжатия : С потерями
Задержка видео : 83 мс.
Размер потока : 119 Мбайт (4%)
Язык : English
Дата кодирования : UTC 2013-09-13 00:10:14
Дата пометки : UTC 2013-09-13 04:07:03

Текст
Идентификатор : 5
Формат : Apple text
Идентификатор кодека : text
Продолжительность : 2 ч. 9 м.
Вид битрейта : Переменный
Битрейт : 1 бит/сек
Задержка видео : 83 мс.
Размер потока : 495 байт (0%)
Дата кодирования : UTC 2013-09-14 09:04:38
Дата пометки : UTC 2013-09-14 09:04:38
x264 [info]: frame I:2176 Avg QP:15.25 size:100800
x264 [info]: frame P:45266 Avg QP:19.17 size: 29644
x264 [info]: frame B:139014 Avg QP:22.78 size: 8084
x264 [info]: consecutive B-frames: 3.1% 3.2% 10.8% 35.8% 18.5% 21.8% 3.6% 1.6% 0.9% 0.7%
x264 [info]: mb I I16..4: 11.0% 55.6% 33.3%
x264 [info]: mb P I16..4: 2.8% 12.7% 2.8% P16..4: 34.1% 18.7% 15.0% 2.6% 1.1% skip:10.2%
x264 [info]: mb B I16..4: 0.3% 1.4% 0.4% B16..8: 38.0% 10.0% 3.3% direct: 7.1% skip:39.5% L0:40.4% L1:41.4% BI:18.2%
x264 [info]: 8x8 transform intra:67.1% inter:58.7%
x264 [info]: coded y,uvDC,uvAC intra: 79.8% 91.3% 80.1% inter: 23.5% 33.5% 16.6%
x264 [info]: i16 v,h,dc,p: 42% 15% 8% 34%
x264 [info]: i8 v,h,dc,ddl,ddr,vr,hd,vl,hu: 16% 12% 7% 8% 12% 11% 12% 11% 12%
x264 [info]: i4 v,h,dc,ddl,ddr,vr,hd,vl,hu: 16% 13% 5% 8% 12% 12% 12% 10% 12%
x264 [info]: i8c dc,h,v,p: 43% 20% 18% 19%
x264 [info]: Weighted P-Frames: Y:4.4% UV:2.3%
x264 [info]: ref P L0: 57.4% 16.4% 12.1% 5.4% 3.5% 2.3% 1.7% 1.1% 0.1% 0.0%
x264 [info]: ref B L0: 83.3% 8.7% 4.0% 1.8% 1.1% 0.7% 0.4%
x264 [info]: ref B L1: 93.1% 6.9%
x264 [info]: kb/s:2762.01
Media Type: Movie
Sort Name: Pain & Gain
XID: Apple:vendor_id:2013-596227
Content ID: 669989888
ScreenWriters: Кристофер Маркус, Стивен МакФили, Пит Коллинз
Producers: Майкл Бэй, Йен Брайс, Дональд Де Лайн
Director: Майкл Бэй
Cast: Марк Уолберг, Дуэйн Джонсон, Энтони Маки, Тони Шэлуб, Эд Харрис, Роб Кордри, Ребел Уилсон, Бар Пали, Кен Жонг, Майкл Рисполи
Long Description: Однажды тренеру по фитнесу надоело ходить в трениках. Он решил круто изменить свою судьбу и разбогатеть. Нашел двух других незадачливых качков и предложил им план похищения своего клиента-миллионера. Но если в организме мышц больше, чем мозгов, то даже самый лучший план, подсмотренный в экшен-боевике, может не сработать…
Description: Однажды тренеру по фитнесу надоело ходить в трениках. Он решил круто изменить свою судьбу и разбогатеть. Нашел двух других незадачливых качков и предложил им план похищения своего клиента-миллионера.
Release Date: 2013-04-11T07:00:00Z
Genre: Comedy
Artist: Michael Bay
Name: Кровью и потом: Анаболики
Comments: «Мечтай по-крупному»
Скриншоты:

Время раздачи: 24/7
[NNM-Club.me]_Pain & Gain.2013.BDRip.iPad.m4v.torrent
 Торрент: Платиновая раздача  Зарегистрирован
 
Скачать


Примагнититься
 Зарегистрирован:   14 Сен 2013 12:27:38
 Размер:   2.75 GB  (
 Рейтинг:   4.6 (Голосов: 43)
 Поблагодарили:   153
 Проверка:   Оформление проверено модератором 14 Сен 2013 19:21:11
Как cкачать  ·  Как раздать  ·  Правильно оформить  ·  Поднять ратио!  
IceCJ
Стаж: 14 лет 1 мес.
Сообщений: 16
Ratio: 6.099
1.98%
в организме априори мышц больше чем мозгов

_________________
(-_-)
Хока
Стаж: 12 лет 2 мес.
Сообщений: 258
Ratio: 75.354
100%
Откуда: Жданов
ussr.gif
Это хорошее кино , фильм-назидание.Снимали его люди в этом толк знающие.Это подтверждает актёрский состав,и Вова Кличко собственной персоной.
mrls
Стаж: 11 лет 5 мес.
Сообщений: 8
Ratio: 19.714
0%
Да, название вроде как звучит тупым. Но за неимением другого выбора решил глянуть - и был приятно удивлен. Фильм хороший.
petrucho2021
Стаж: 3 года 4 мес.
Сообщений: 13
Ratio: 339.407
100%
mrls писал(а): Перейти к сообщению
Да, название вроде как звучит тупым. Но за неимением другого выбора решил глянуть - и был приятно удивлен. Фильм хороший.

фильм хороший но дубляж не очень, как голоса так и перевод. могу посоветовать авторский перевод от Вячеслава Замеза, одноголосный, закадровый. но многократно лучше дубляжа, ссылка на звуковую дорожку под спойлером.
Показать сообщения:   
Начать новую тему   Ответить на тему    Торрент-трекер NNM-Club -> Аудио и Видео -> Зарубежное видео для устройств Apple Часовой пояс: GMT + 3
Страница 1 из 1