Классический форум-трекер
canvas not supported
Нас вместе: 4 171 447

Chvrches - The Bones of What You Believe (2013) European Limited Edition [ALAC|Tracks]<Electronic, Pop, Indie Pop, Synth-pop>


 
 
RSS
Начать новую тему   Ответить на тему    Торрент-трекер NNM-Club -> Аудио и Видео -> Музыка Lossless (ALAC)
Автор Сообщение
kat@kat ®
Модератор Apple
Стаж: 12 лет
Сообщений: 37972
Ratio: 260.076
Поблагодарили: 567590
100%
Chvrches - The Bones of What You Believe (European Limited Edition) (2013)
Год: 2013
Жанр: Electronic, Pop, Indie Pop, Synth-pop
Лейбл: Vertigo/Capitol
Каталожный номер: 3748516
Продолжительность: 00:54:41

Кодек: ALAC
Тип раздачи: Tracks
Вшитые обложки: Есть
Кодирование: X Lossless Decoder 20130720, QuickTime 7.7.1
Исходник: flac|Tracks

Треклист:
01. The Mother We Share (3:12)
02. We Sink (3:34)
03. Gun (3:54)
04. Tether (4:46)
05. Lies (3:41)
06. Under The Tide (4:32)
07. Recover (3:46)
08. Night Sky (3:51)
09. Science , Visions (3:58)
10. Lungs (3:03)
11. By The Throat (4:09)
12. You Caught The Light (5:37)
13. Strong Hand (Bonus Track) (3:25)
14. The Mother We Share (Errors Remix) (Bonus Track) (3:18)
Код:

General
Complete name          : /Volumes/TM/M/CHVRCHES (2013)  The Bones of What You Believe ALAC/01 The Mother We Share.m4a
Format              : MPEG-4
Format profile            : Apple audio with iTunes info
Codec ID              : M4A
File size              : 23.4 MiB
Duration              : 3mn 12s
Overall bit rate mode        : Variable
Overall bit rate          : 1 022 Kbps
Album              : The Bones of What You Believe
Part/Position            : 1
Part/Total            : 1
Track name            : The Mother We Share
Track name/Position        : 1
Track name/Total          : 14
Performer            : CHVRCHES
Genre              : Pop
Recorded date            : 2013
Encoded date            : UTC 2032-12-02 08:43:58
Tagged date            : UTC 2013-09-21 09:52:29
Writing application          : X Lossless Decoder 20130720, QuickTime 7.7.1
Cover              : Yes

Audio
ID                : 1
Format              : ALAC
Codec ID              : alac
Codec ID/Info            : Apple Lossless Audio Codec
Duration              : 3mn 12s
Duration_LastFrame        : -48ms
Bit rate mode            : Variable
Bit rate              : 1 015 Kbps
Channel(s)            : 2 channels
Sampling rate            : 44.1 KHz
Bit depth              : 16 bits
Stream size            : 23.2 MiB (99%)
Language            : English
Encoded date            : UTC 2032-12-02 08:43:58
Tagged date            : UTC 2013-09-21 09:52:29

General
Complete name          : /Volumes/TM/M/CHVRCHES (2013)  The Bones of What You Believe ALAC/02 We Sink.m4a
Format              : MPEG-4
Format profile            : Apple audio with iTunes info
Codec ID              : M4A
File size              : 26.3 MiB
Duration              : 3mn 34s
Overall bit rate mode        : Variable
Overall bit rate          : 1 030 Kbps
Album              : The Bones of What You Believe
Part/Position            : 1
Part/Total            : 1
Track name            : We Sink
Track name/Position        : 2
Track name/Total          : 14
Performer            : CHVRCHES
Genre              : Pop
Recorded date            : 2013
Encoded date            : UTC 2032-12-02 08:43:58
Tagged date            : UTC 2013-09-21 09:52:29
Writing application          : X Lossless Decoder 20130720, QuickTime 7.7.1
Cover              : Yes

Audio
ID                : 1
Format              : ALAC
Codec ID              : alac
Codec ID/Info            : Apple Lossless Audio Codec
Duration              : 3mn 34s
Duration_LastFrame        : -86ms
Bit rate mode            : Variable
Bit rate              : 1 023 Kbps
Channel(s)            : 2 channels
Sampling rate            : 44.1 KHz
Bit depth              : 16 bits
Stream size            : 26.2 MiB (99%)
Language            : English
Encoded date            : UTC 2032-12-02 08:43:58
Tagged date            : UTC 2013-09-21 09:52:29

General
Complete name          : /Volumes/TM/M/CHVRCHES (2013)  The Bones of What You Believe ALAC/03 Gun.m4a
Format              : MPEG-4
Format profile            : Apple audio with iTunes info
Codec ID              : M4A
File size              : 28.4 MiB
Duration              : 3mn 53s
Overall bit rate mode        : Variable
Overall bit rate          : 1 020 Kbps
Album              : The Bones of What You Believe
Part/Position            : 1
Part/Total            : 1
Track name            : Gun
Track name/Position        : 3
Track name/Total          : 14
Performer            : CHVRCHES
Genre              : Pop
Recorded date            : 2013
Encoded date            : UTC 2032-12-02 08:43:58
Tagged date            : UTC 2013-09-21 09:52:29
Writing application          : X Lossless Decoder 20130720, QuickTime 7.7.1
Cover              : Yes

Audio
ID                : 1
Format              : ALAC
Codec ID              : alac
Codec ID/Info            : Apple Lossless Audio Codec
Duration              : 3mn 53s
Duration_LastFrame        : -70ms
Bit rate mode            : Variable
Bit rate              : 1 013 Kbps
Channel(s)            : 2 channels
Sampling rate            : 44.1 KHz
Bit depth              : 16 bits
Stream size            : 28.3 MiB (99%)
Language            : English
Encoded date            : UTC 2032-12-02 08:43:58
Tagged date            : UTC 2013-09-21 09:52:29

General
Complete name          : /Volumes/TM/M/CHVRCHES (2013)  The Bones of What You Believe ALAC/04 Tether.m4a
Format              : MPEG-4
Format profile            : Apple audio with iTunes info
Codec ID              : M4A
File size              : 32.3 MiB
Duration              : 4mn 46s
Overall bit rate mode        : Variable
Overall bit rate          : 945 Kbps
Album              : The Bones of What You Believe
Part/Position            : 1
Part/Total            : 1
Track name            : Tether
Track name/Position        : 4
Track name/Total          : 14
Performer            : CHVRCHES
Genre              : Pop
Recorded date            : 2013
Encoded date            : UTC 2033-06-14 13:04:14
Tagged date            : UTC 2013-09-21 09:52:29
Writing application          : X Lossless Decoder 20130720, QuickTime 7.7.1
Cover              : Yes

Audio
ID                : 1
Format              : ALAC
Codec ID              : alac
Codec ID/Info            : Apple Lossless Audio Codec
Duration              : 4mn 46s
Duration_LastFrame        : -41ms
Bit rate mode            : Variable
Bit rate              : 940 Kbps
Channel(s)            : 2 channels
Sampling rate            : 44.1 KHz
Bit depth              : 16 bits
Stream size            : 32.1 MiB (99%)
Language            : English
Encoded date            : UTC 2033-06-14 13:04:14
Tagged date            : UTC 2013-09-21 09:52:29

General
Complete name          : /Volumes/TM/M/CHVRCHES (2013)  The Bones of What You Believe ALAC/05 Lies.m4a
Format              : MPEG-4
Format profile            : Apple audio with iTunes info
Codec ID              : M4A
File size              : 27.0 MiB
Duration              : 3mn 41s
Overall bit rate mode        : Variable
Overall bit rate          : 1 024 Kbps
Album              : The Bones of What You Believe
Part/Position            : 1
Part/Total            : 1
Track name            : Lies
Track name/Position        : 5
Track name/Total          : 14
Performer            : CHVRCHES
Genre              : Pop
Recorded date            : 2013
Encoded date            : UTC 2032-12-02 08:43:58
Tagged date            : UTC 2013-09-21 09:52:29
Writing application          : X Lossless Decoder 20130720, QuickTime 7.7.1
Cover              : Yes

Audio
ID                : 1
Format              : ALAC
Codec ID              : alac
Codec ID/Info            : Apple Lossless Audio Codec
Duration              : 3mn 41s
Duration_LastFrame        : -1ms
Bit rate mode            : Variable
Bit rate              : 1 017 Kbps
Channel(s)            : 2 channels
Sampling rate            : 44.1 KHz
Bit depth              : 16 bits
Stream size            : 26.8 MiB (99%)
Language            : English
Encoded date            : UTC 2032-12-02 08:43:58
Tagged date            : UTC 2013-09-21 09:52:29

General
Complete name          : /Volumes/TM/M/CHVRCHES (2013)  The Bones of What You Believe ALAC/06 Under The Tide.m4a
Format              : MPEG-4
Format profile            : Apple audio with iTunes info
Codec ID              : M4A
File size              : 30.8 MiB
Duration              : 4mn 32s
Overall bit rate mode        : Variable
Overall bit rate          : 950 Kbps
Album              : The Bones of What You Believe
Part/Position            : 1
Part/Total            : 1
Track name            : Under The Tide
Track name/Position        : 6
Track name/Total          : 14
Performer            : CHVRCHES
Genre              : Pop
Recorded date            : 2013
Encoded date            : UTC 2033-06-14 13:04:14
Tagged date            : UTC 2013-09-21 09:52:29
Writing application          : X Lossless Decoder 20130720, QuickTime 7.7.1
Cover              : Yes

Audio
ID                : 1
Format              : ALAC
Codec ID              : alac
Codec ID/Info            : Apple Lossless Audio Codec
Duration              : 4mn 32s
Duration_LastFrame        : -18ms
Bit rate mode            : Variable
Bit rate              : 945 Kbps
Channel(s)            : 2 channels
Sampling rate            : 44.1 KHz
Bit depth              : 16 bits
Stream size            : 30.6 MiB (99%)
Language            : English
Encoded date            : UTC 2033-06-14 13:04:14
Tagged date            : UTC 2013-09-21 09:52:29

General
Complete name          : /Volumes/TM/M/CHVRCHES (2013)  The Bones of What You Believe ALAC/07 Recover.m4a
Format              : MPEG-4
Format profile            : Apple audio with iTunes info
Codec ID              : M4A
File size              : 27.9 MiB
Duration              : 3mn 45s
Overall bit rate mode        : Variable
Overall bit rate          : 1 035 Kbps
Album              : The Bones of What You Believe
Part/Position            : 1
Part/Total            : 1
Track name            : Recover
Track name/Position        : 7
Track name/Total          : 14
Performer            : CHVRCHES
Genre              : Pop
Recorded date            : 2013
Encoded date            : UTC 2033-06-14 13:04:14
Tagged date            : UTC 2013-09-21 09:52:29
Writing application          : X Lossless Decoder 20130720, QuickTime 7.7.1
Cover              : Yes

Audio
ID                : 1
Format              : ALAC
Codec ID              : alac
Codec ID/Info            : Apple Lossless Audio Codec
Duration              : 3mn 45s
Duration_LastFrame        : -30ms
Bit rate mode            : Variable
Bit rate              : 1 029 Kbps
Channel(s)            : 2 channels
Sampling rate            : 44.1 KHz
Bit depth              : 16 bits
Stream size            : 27.7 MiB (99%)
Language            : English
Encoded date            : UTC 2033-06-14 13:04:14
Tagged date            : UTC 2013-09-21 09:52:29

General
Complete name          : /Volumes/TM/M/CHVRCHES (2013)  The Bones of What You Believe ALAC/08 Night Sky.m4a
Format              : MPEG-4
Format profile            : Apple audio with iTunes info
Codec ID              : M4A
File size              : 27.7 MiB
Duration              : 3mn 51s
Overall bit rate mode        : Variable
Overall bit rate          : 1 007 Kbps
Album              : The Bones of What You Believe
Part/Position            : 1
Part/Total            : 1
Track name            : Night Sky
Track name/Position        : 8
Track name/Total          : 14
Performer            : CHVRCHES
Genre              : Pop
Recorded date            : 2013
Encoded date            : UTC 2033-06-14 13:04:14
Tagged date            : UTC 2013-09-21 09:52:29
Writing application          : X Lossless Decoder 20130720, QuickTime 7.7.1
Cover              : Yes

Audio
ID                : 1
Format              : ALAC
Codec ID              : alac
Codec ID/Info            : Apple Lossless Audio Codec
Duration              : 3mn 51s
Duration_LastFrame        : -85ms
Bit rate mode            : Variable
Bit rate              : 1 001 Kbps
Channel(s)            : 2 channels
Sampling rate            : 44.1 KHz
Bit depth              : 16 bits
Stream size            : 27.6 MiB (99%)
Language            : English
Encoded date            : UTC 2033-06-14 13:04:14
Tagged date            : UTC 2013-09-21 09:52:29

General
Complete name          : /Volumes/TM/M/CHVRCHES (2013)  The Bones of What You Believe ALAC/09 Science , Visions.m4a
Format              : MPEG-4
Format profile            : Apple audio with iTunes info
Codec ID              : M4A
File size              : 26.9 MiB
Duration              : 3mn 58s
Overall bit rate mode        : Variable
Overall bit rate          : 948 Kbps
Album              : The Bones of What You Believe
Part/Position            : 1
Part/Total            : 1
Track name            : Science , Visions
Track name/Position        : 9
Track name/Total          : 14
Performer            : CHVRCHES
Genre              : Pop
Recorded date            : 2013
Encoded date            : UTC 2034-07-07 21:44:46
Tagged date            : UTC 2013-09-21 09:52:29
Writing application          : X Lossless Decoder 20130720, QuickTime 7.7.1
Cover              : Yes

Audio
ID                : 1
Format              : ALAC
Codec ID              : alac
Codec ID/Info            : Apple Lossless Audio Codec
Duration              : 3mn 58s
Duration_LastFrame        : -64ms
Bit rate mode            : Variable
Bit rate              : 942 Kbps
Channel(s)            : 2 channels
Sampling rate            : 44.1 KHz
Bit depth              : 16 bits
Stream size            : 26.7 MiB (99%)
Language            : English
Encoded date            : UTC 2034-07-07 21:44:46
Tagged date            : UTC 2013-09-21 09:52:29

General
Complete name          : /Volumes/TM/M/CHVRCHES (2013)  The Bones of What You Believe ALAC/10 Lungs.m4a
Format              : MPEG-4
Format profile            : Apple audio with iTunes info
Codec ID              : M4A
File size              : 22.1 MiB
Duration              : 3mn 2s
Overall bit rate mode        : Variable
Overall bit rate          : 1 012 Kbps
Album              : The Bones of What You Believe
Part/Position            : 1
Part/Total            : 1
Track name            : Lungs
Track name/Position        : 10
Track name/Total          : 14
Performer            : CHVRCHES
Genre              : Pop
Recorded date            : 2013
Encoded date            : UTC 2034-07-07 21:44:46
Tagged date            : UTC 2013-09-21 09:52:29
Writing application          : X Lossless Decoder 20130720, QuickTime 7.7.1
Cover              : Yes

Audio
ID                : 1
Format              : ALAC
Codec ID              : alac
Codec ID/Info            : Apple Lossless Audio Codec
Duration              : 3mn 2s
Duration_LastFrame        : -14ms
Bit rate mode            : Variable
Bit rate              : 1 004 Kbps
Channel(s)            : 2 channels
Sampling rate            : 44.1 KHz
Bit depth              : 16 bits
Stream size            : 21.9 MiB (99%)
Language            : English
Encoded date            : UTC 2034-07-07 21:44:46
Tagged date            : UTC 2013-09-21 09:52:29

General
Complete name          : /Volumes/TM/M/CHVRCHES (2013)  The Bones of What You Believe ALAC/11 By The Throat.m4a
Format              : MPEG-4
Format profile            : Apple audio with iTunes info
Codec ID              : M4A
File size              : 29.4 MiB
Duration              : 4mn 9s
Overall bit rate mode        : Variable
Overall bit rate          : 988 Kbps
Album              : The Bones of What You Believe
Part/Position            : 1
Part/Total            : 1
Track name            : By The Throat
Track name/Position        : 11
Track name/Total          : 14
Performer            : CHVRCHES
Genre              : Pop
Recorded date            : 2013
Encoded date            : UTC 2035-01-18 02:05:02
Tagged date            : UTC 2013-09-21 09:52:29
Writing application          : X Lossless Decoder 20130720, QuickTime 7.7.1
Cover              : Yes

Audio
ID                : 1
Format              : ALAC
Codec ID              : alac
Codec ID/Info            : Apple Lossless Audio Codec
Duration              : 4mn 9s
Duration_LastFrame        : -22ms
Bit rate mode            : Variable
Bit rate              : 982 Kbps
Channel(s)            : 2 channels
Sampling rate            : 44.1 KHz
Bit depth              : 16 bits
Stream size            : 29.2 MiB (99%)
Language            : English
Encoded date            : UTC 2035-01-18 02:05:02
Tagged date            : UTC 2013-09-21 09:52:29

General
Complete name          : /Volumes/TM/M/CHVRCHES (2013)  The Bones of What You Believe ALAC/12 You Caught The Light.m4a
Format              : MPEG-4
Format profile            : Apple audio with iTunes info
Codec ID              : M4A
File size              : 35.1 MiB
Duration              : 5mn 36s
Overall bit rate mode        : Variable
Overall bit rate          : 874 Kbps
Album              : The Bones of What You Believe
Part/Position            : 1
Part/Total            : 1
Track name            : You Caught The Light
Track name/Position        : 12
Track name/Total          : 14
Performer            : CHVRCHES
Genre              : Pop
Recorded date            : 2013
Encoded date            : UTC 2035-07-31 06:25:18
Tagged date            : UTC 2013-09-21 09:52:29
Writing application          : X Lossless Decoder 20130720, QuickTime 7.7.1
Cover              : Yes

Audio
ID                : 1
Format              : ALAC
Codec ID              : alac
Codec ID/Info            : Apple Lossless Audio Codec
Duration              : 5mn 36s
Duration_LastFrame        : -74ms
Bit rate mode            : Variable
Bit rate              : 870 Kbps
Channel(s)            : 2 channels
Sampling rate            : 44.1 KHz
Bit depth              : 16 bits
Stream size            : 34.9 MiB (99%)
Language            : English
Encoded date            : UTC 2035-07-31 06:25:18
Tagged date            : UTC 2013-09-21 09:52:29

General
Complete name          : /Volumes/TM/M/CHVRCHES (2013)  The Bones of What You Believe ALAC/13 Strong Hand (Bonus Track).m4a
Format              : MPEG-4
Format profile            : Apple audio with iTunes info
Codec ID              : M4A
File size              : 25.2 MiB
Duration              : 3mn 25s
Overall bit rate mode        : Variable
Overall bit rate          : 1 032 Kbps
Album              : The Bones of What You Believe
Part/Position            : 1
Part/Total            : 1
Track name            : Strong Hand (Bonus Track)
Track name/Position        : 13
Track name/Total          : 14
Performer            : CHVRCHES
Genre              : Pop
Recorded date            : 2013
Encoded date            : UTC 2035-01-18 02:05:02
Tagged date            : UTC 2013-09-21 09:52:29
Writing application          : X Lossless Decoder 20130720, QuickTime 7.7.1
Cover              : Yes

Audio
ID                : 1
Format              : ALAC
Codec ID              : alac
Codec ID/Info            : Apple Lossless Audio Codec
Duration              : 3mn 25s
Duration_LastFrame        : -25ms
Bit rate mode            : Variable
Bit rate              : 1 025 Kbps
Channel(s)            : 2 channels
Sampling rate            : 44.1 KHz
Bit depth              : 16 bits
Stream size            : 25.0 MiB (99%)
Language            : English
Encoded date            : UTC 2035-01-18 02:05:02
Tagged date            : UTC 2013-09-21 09:52:29

General
Complete name          : /Volumes/TM/M/CHVRCHES (2013)  The Bones of What You Believe ALAC/14 The Mother We Share (Errors Remix) (Bonus Track).m4a
Format              : MPEG-4
Format profile            : Apple audio with iTunes info
Codec ID              : M4A
File size              : 22.7 MiB
Duration              : 3mn 17s
Overall bit rate mode        : Variable
Overall bit rate          : 965 Kbps
Album              : The Bones of What You Believe
Part/Position            : 1
Part/Total            : 1
Track name            : The Mother We Share (Errors Remix) (Bonus Track)
Track name/Position        : 14
Track name/Total          : 14
Performer            : CHVRCHES
Genre              : Pop
Recorded date            : 2013
Encoded date            : UTC 2035-01-18 02:05:02
Tagged date            : UTC 2013-09-21 09:52:29
Writing application          : X Lossless Decoder 20130720, QuickTime 7.7.1
Cover              : Yes

Audio
ID                : 1
Format              : ALAC
Codec ID              : alac
Codec ID/Info            : Apple Lossless Audio Codec
Duration              : 3mn 17s
Duration_LastFrame        : -35ms
Bit rate mode            : Variable
Bit rate              : 958 Kbps
Channel(s)            : 2 channels
Sampling rate            : 44.1 KHz
Bit depth              : 16 bits
Stream size            : 22.6 MiB (99%)
Language            : English
Encoded date            : UTC 2035-01-18 02:05:02

Код:

-----------------------

DON'T MODIFY THIS FILE

-----------------------

PERFORMER: auCDtect Task Manager, ver. 1.6.0 RC1 build 1.6.0.1
Copyright (c) 2008-2010 y-soft. All rights reserved
http://y-soft.org

ANALYZER: auCDtect: CD records authenticity detector, version 0.8.2
Copyright (c) 2004 Oleg Berngardt. All rights reserved.
Copyright (c) 2004 Alexander Djourik. All rights reserved.

FILE: 14 The Mother We Share (Errors Remix) (Bonus Track).m4a
  Size: 23835856 Hash: 88C49A069E66A2AF3F2A97CB813D0008 Accuracy: -m0
  Conclusion: CDDA 99%
  Signature: 68A25086731A6FC43121CEF65039916323A2FCDB
FILE: 13 Strong Hand (Bonus Track).m4a
  Size: 26443740 Hash: A05514F8542921C5DEB867BCCC558367 Accuracy: -m0
  Conclusion: CDDA 100%
  Signature: 81C0FC40C6D25EC79D0354561C33EBA543A21EA8
FILE: 12 You Caught The Light.m4a
  Size: 36830742 Hash: 7E666FC59EB393A1878F33F98C39C8DE Accuracy: -m0
  Conclusion: CDDA 100%
  Signature: AB1932FC89535C61DA808D3E50CEEADE1F12C71D
FILE: 11 By The Throat.m4a
  Size: 30794195 Hash: 0AAAF9E6F02B0E3771EFDAB0C0E0E936 Accuracy: -m0
  Conclusion: CDDA 100%
  Signature: BE87BDF8C9C2E0E5306CE245C49718939992FDB1
FILE: 10 Lungs.m4a
  Size: 23135070 Hash: 80FE19F97DC494F0CC04C89265FC5EEA Accuracy: -m0
  Conclusion: CDDA 100%
  Signature: 25F205B18657D29956FEC1CE5AFE2BA612F7AE8C
FILE: 09 Science , Visions.m4a
  Size: 28204424 Hash: 8279759252477AD84CE8ED146E7B5641 Accuracy: -m0
  Conclusion: CDDA 100%
  Signature: 05438E5C2E260E5CE422F4592B68463998F27487
FILE: 08 Night Sky.m4a
  Size: 29096272 Hash: 45C0C85771C448196F27AEB665A29CAF Accuracy: -m0
  Conclusion: CDDA 100%
  Signature: 101F2E0AB1377A85F2B73AB8F4C84A6AC1A3DDD2
FILE: 07 Recover.m4a
  Size: 29231077 Hash: 110D7802A4CA67A20B11AF1D2F8155CE Accuracy: -m0
  Conclusion: CDDA 100%
  Signature: E2AB6B45573F7A15097FF62842EBC41F0808AB99
FILE: 06 Under The Tide.m4a
  Size: 32309610 Hash: 8AF39B478D0577FA3BD8376A9B42903E Accuracy: -m0
  Conclusion: CDDA 100%
  Signature: 758B8FC8BFF4CA063F550DBFED10B4F2A3A92095
FILE: 05 Lies.m4a
  Size: 28292391 Hash: 5404352F64CE4EA069D45E6B75AD6BC6 Accuracy: -m0
  Conclusion: CDDA 100%
  Signature: 31C98B3C6B07C7983A2DCE39AB0517A19EAD867A
FILE: 04 Tether.m4a
  Size: 33839661 Hash: 7FADB1B705B0CFE159FA22BA57968120 Accuracy: -m0
  Conclusion: CDDA 100%
  Signature: 009605A93948A9AC8C54BBB69C8E22CEC831485E
FILE: 03 Gun.m4a
  Size: 29828062 Hash: 9E69BBCD6410F402B82D3070A6D7781D Accuracy: -m0
  Conclusion: CDDA 100%
  Signature: 1CF07F3508F9A82F1E0AD58249E3FA954CACEE35
FILE: 02 We Sink.m4a
  Size: 27613363 Hash: FD6F439E00983E9869080AEDAED34E88 Accuracy: -m0
  Conclusion: CDDA 100%
  Signature: 297EFCD80378AD9F414F3183C18321BD1940C1CA
FILE: 01 The Mother We Share.m4a
  Size: 24550758 Hash: 8CD6EC662827D8C98FC984EFD3119A1B Accuracy: -m0
  Conclusion: CDDA 100%
  Signature: 112CCCACD5167A6185E5D1924A64D517F81F6406
Время раздачи: до 3-х первых скачавших
[NNM-Club.me]_CHVRCHES (2013) The Bones of What You Believe ALAC.torrent
 Торрент: Платиновая раздача  Зарегистрирован
 
Скачать


Примагнититься
 Зарегистрирован:   21 Сен 2013 09:31:43
 Размер:   385 MB  (
 Рейтинг:   5 (Голосов: 13)
 Поблагодарили:   39
 Проверка:   Оформление проверено модератором 21 Сен 2013 19:12:51
Как cкачать  ·  Как раздать  ·  Правильно оформить  ·  Поднять ратио!  
Показать сообщения:   
Начать новую тему   Ответить на тему    Торрент-трекер NNM-Club -> Аудио и Видео -> Музыка Lossless (ALAC) Часовой пояс: GMT + 3
Страница 1 из 1