Классический форум-трекер
canvas not supported
Нас вместе: 4 172 561

Christopher Amott - Follow Your Heart (2010) [ALAC|Lossless]<Rock>


 
 
RSS
Начать новую тему   Ответить на тему    Торрент-трекер NNM-Club -> Аудио и Видео -> Музыка Lossless (ALAC)
Автор Сообщение
Kozlice ®
 
Стаж: 14 лет 2 мес.
Сообщений: 106
Ratio: 3.322
Раздал: 2.322 TB
Поблагодарили: 1828
100%
Откуда: Moscow, Russia
russia.gif
Christopher Amott - Follow Your Heart (2010)
Год: 2010
Жанр: Rock
Продолжительность: 00:33:03

Кодек: ALAC
Битрейт: Lossless
Тип битрейта: VBR

Специально для NNM-Club: сольный альбом Кристофера Эмотта 2010 года в lossless качестве.

Здесь в помине нет того ураганного метала, что мы привыкли слышать от него в Arch Enemy и Armageddon: это отличный спокойный альбом в духе психоделик-рока 70-х.

Если вы любите творчество Кристофера, или слышите в первый раз, но вам понравилось, не стесняйтесь поддержать его материально - альбом доступен для покупки в русском iTunes.

Треклист:
1. "Tibet" - 5:21
2. "Holy Mountain" - 4:25
3. "Kilimanjaro" - 3:10
4. "In the Pale Moonlight" - 4:01
5. "Track #5" - 3:48
6. "Space Song" - 5:25
7. "From Here To There" - 3:08
8. "Lifeline" - 3:45
Код:

General
Complete name          : /Users/kozlice/Music/iTunes/iTunes Media/Music/Christopher Amott/Follow Your Heart/01 Tibet.m4a
Format              : MPEG-4
Format profile            : Apple audio with iTunes info
Codec ID              : M4A
File size              : 30.8 MiB
Duration              : 5mn 20s
Overall bit rate mode        : Variable
Overall bit rate          : 805 Kbps
Album              : Follow Your Heart
Track name            : Tibet
Track name/Position        : 1
Performer            : Christopher Amott
Genre              : Rock
Recorded date            : 2010
Encoded date            : UTC 2018-10-17 03:49:34
Tagged date            : UTC 2013-09-26 23:02:56
Writing application          : Pro Audio Converter 1.6
Cover              : Yes

Audio
ID                : 1
Format              : ALAC
Codec ID              : alac
Codec ID/Info            : Apple Lossless Audio Codec
Duration              : 5mn 20s
Duration_LastFrame        : -60ms
Bit rate mode            : Variable
Bit rate              : 801 Kbps
Channel(s)            : 2 channels
Sampling rate            : 44.1 KHz
Bit depth              : 16 bits
Stream size            : 30.6 MiB (99%)
Language            : English
Encoded date            : UTC 2018-10-17 03:49:34
Tagged date            : UTC 2013-09-26 23:02:56

General
Complete name          : /Users/kozlice/Music/iTunes/iTunes Media/Music/Christopher Amott/Follow Your Heart/02 Holy Mountain.m4a
Format              : MPEG-4
Format profile            : Apple audio with iTunes info
Codec ID              : M4A
File size              : 31.6 MiB
Duration              : 4mn 24s
Overall bit rate mode        : Variable
Overall bit rate          : 1 000 Kbps
Album              : Follow Your Heart
Track name            : Holy Mountain
Track name/Position        : 2
Performer            : Christopher Amott
Genre              : Rock
Recorded date            : 2010
Encoded date            : UTC 2018-04-05 23:29:18
Tagged date            : UTC 2013-09-26 23:02:56
Writing application          : Pro Audio Converter 1.6
Cover              : Yes

Audio
ID                : 1
Format              : ALAC
Codec ID              : alac
Codec ID/Info            : Apple Lossless Audio Codec
Duration              : 4mn 24s
Duration_LastFrame        : -67ms
Bit rate mode            : Variable
Bit rate              : 995 Kbps
Channel(s)            : 2 channels
Sampling rate            : 44.1 KHz
Bit depth              : 16 bits
Stream size            : 31.4 MiB (100%)
Language            : English
Encoded date            : UTC 2018-04-05 23:29:18
Tagged date            : UTC 2013-09-26 23:02:56

General
Complete name          : /Users/kozlice/Music/iTunes/iTunes Media/Music/Christopher Amott/Follow Your Heart/03 Kilimanjaro.m4a
Format              : MPEG-4
Format profile            : Apple audio with iTunes info
Codec ID              : M4A
File size              : 18.1 MiB
Duration              : 3mn 10s
Overall bit rate mode        : Variable
Overall bit rate          : 798 Kbps
Album              : Follow Your Heart
Track name            : Kilimanjaro
Track name/Position        : 3
Performer            : Christopher Amott
Genre              : Rock
Recorded date            : 2010
Encoded date            : UTC 2017-09-23 19:09:02
Tagged date            : UTC 2013-09-26 23:02:57
Writing application          : Pro Audio Converter 1.6
Cover              : Yes

Audio
ID                : 1
Format              : ALAC
Codec ID              : alac
Codec ID/Info            : Apple Lossless Audio Codec
Duration              : 3mn 10s
Duration_LastFrame        : -5ms
Bit rate mode            : Variable
Bit rate              : 791 Kbps
Channel(s)            : 2 channels
Sampling rate            : 44.1 KHz
Bit depth              : 16 bits
Stream size            : 17.9 MiB (99%)
Language            : English
Encoded date            : UTC 2017-09-23 19:09:02
Tagged date            : UTC 2013-09-26 23:02:57

General
Complete name          : /Users/kozlice/Music/iTunes/iTunes Media/Music/Christopher Amott/Follow Your Heart/04 In the Pale Moonlight.m4a
Format              : MPEG-4
Format profile            : Apple audio with iTunes info
Codec ID              : M4A
File size              : 26.9 MiB
Duration              : 4mn 0s
Overall bit rate mode        : Variable
Overall bit rate          : 938 Kbps
Album              : Follow Your Heart
Track name            : In the Pale Moonlight
Track name/Position        : 4
Performer            : Christopher Amott
Genre              : Rock
Recorded date            : 2010
Encoded date            : UTC 2018-04-05 23:29:18
Tagged date            : UTC 2013-09-26 23:02:58
Writing application          : Pro Audio Converter 1.6
Cover              : Yes

Audio
ID                : 1
Format              : ALAC
Codec ID              : alac
Codec ID/Info            : Apple Lossless Audio Codec
Duration              : 4mn 0s
Duration_LastFrame        : -39ms
Bit rate mode            : Variable
Bit rate              : 933 Kbps
Channel(s)            : 2 channels
Sampling rate            : 44.1 KHz
Bit depth              : 16 bits
Stream size            : 26.8 MiB (99%)
Language            : English
Encoded date            : UTC 2018-04-05 23:29:18
Tagged date            : UTC 2013-09-26 23:02:58

General
Complete name          : /Users/kozlice/Music/iTunes/iTunes Media/Music/Christopher Amott/Follow Your Heart/05 Track #5.m4a
Format              : MPEG-4
Format profile            : Apple audio with iTunes info
Codec ID              : M4A
File size              : 26.0 MiB
Duration              : 3mn 48s
Overall bit rate mode        : Variable
Overall bit rate          : 956 Kbps
Album              : Follow Your Heart
Track name            : Track #5
Track name/Position        : 5
Performer            : Christopher Amott
Genre              : Rock
Recorded date            : 2010
Encoded date            : UTC 2019-04-29 08:09:50
Tagged date            : UTC 2013-09-26 23:02:59
Writing application          : Pro Audio Converter 1.6
Cover              : Yes

Audio
ID                : 1
Format              : ALAC
Codec ID              : alac
Codec ID/Info            : Apple Lossless Audio Codec
Duration              : 3mn 48s
Duration_LastFrame        : -33ms
Bit rate mode            : Variable
Bit rate              : 950 Kbps
Channel(s)            : 2 channels
Sampling rate            : 44.1 KHz
Bit depth              : 16 bits
Stream size            : 25.8 MiB (99%)
Language            : English
Encoded date            : UTC 2019-04-29 08:09:50
Tagged date            : UTC 2013-09-26 23:02:59

General
Complete name          : /Users/kozlice/Music/iTunes/iTunes Media/Music/Christopher Amott/Follow Your Heart/06 Space Song.m4a
Format              : MPEG-4
Format profile            : Apple audio with iTunes info
Codec ID              : M4A
File size              : 34.9 MiB
Duration              : 5mn 25s
Overall bit rate mode        : Variable
Overall bit rate          : 899 Kbps
Album              : Follow Your Heart
Track name            : Space Song
Track name/Position        : 6
Performer            : Christopher Amott
Genre              : Rock
Recorded date            : 2010
Encoded date            : UTC 2020-12-01 21:10:38
Tagged date            : UTC 2013-09-26 23:03:00
Writing application          : Pro Audio Converter 1.6
Cover              : Yes

Audio
ID                : 1
Format              : ALAC
Codec ID              : alac
Codec ID/Info            : Apple Lossless Audio Codec
Duration              : 5mn 25s
Duration_LastFrame        : -38ms
Bit rate mode            : Variable
Bit rate              : 894 Kbps
Channel(s)            : 2 channels
Sampling rate            : 44.1 KHz
Bit depth              : 16 bits
Stream size            : 34.7 MiB (100%)
Language            : English
Encoded date            : UTC 2020-12-01 21:10:38
Tagged date            : UTC 2013-09-26 23:03:00

General
Complete name          : /Users/kozlice/Music/iTunes/iTunes Media/Music/Christopher Amott/Follow Your Heart/07 From Here To There.m4a
Format              : MPEG-4
Format profile            : Apple audio with iTunes info
Codec ID              : M4A
File size              : 23.0 MiB
Duration              : 3mn 8s
Overall bit rate mode        : Variable
Overall bit rate          : 1 026 Kbps
Album              : Follow Your Heart
Track name            : From Here To There
Track name/Position        : 7
Performer            : Christopher Amott
Genre              : Rock
Recorded date            : 2010
Encoded date            : UTC 2020-05-21 16:50:22
Tagged date            : UTC 2013-09-26 23:03:00
Writing application          : Pro Audio Converter 1.6
Cover              : Yes

Audio
ID                : 1
Format              : ALAC
Codec ID              : alac
Codec ID/Info            : Apple Lossless Audio Codec
Duration              : 3mn 8s
Duration_LastFrame        : -28ms
Bit rate mode            : Variable
Bit rate              : 1 019 Kbps
Channel(s)            : 2 channels
Sampling rate            : 44.1 KHz
Bit depth              : 16 bits
Stream size            : 22.9 MiB (99%)
Language            : English
Encoded date            : UTC 2020-05-21 16:50:22
Tagged date            : UTC 2013-09-26 23:03:00

General
Complete name          : /Users/kozlice/Music/iTunes/iTunes Media/Music/Christopher Amott/Follow Your Heart/08 Lifeline.m4a
Format              : MPEG-4
Format profile            : Apple audio with iTunes info
Codec ID              : M4A
File size              : 21.3 MiB
Duration              : 3mn 44s
Overall bit rate mode        : Variable
Overall bit rate          : 794 Kbps
Album              : Follow Your Heart
Track name            : Lifeline
Track name/Position        : 8
Performer            : Christopher Amott
Genre              : Rock
Recorded date            : 2010
Encoded date            : UTC 2020-05-21 16:50:22
Tagged date            : UTC 2013-09-26 23:03:01
Writing application          : Pro Audio Converter 1.6
Cover              : Yes

Audio
ID                : 1
Format              : ALAC
Codec ID              : alac
Codec ID/Info            : Apple Lossless Audio Codec
Duration              : 3mn 44s
Duration_LastFrame        : -89ms
Bit rate mode            : Variable
Bit rate              : 788 Kbps
Channel(s)            : 2 channels
Sampling rate            : 44.1 KHz
Bit depth              : 16 bits
Stream size            : 21.1 MiB (99%)
Language            : English
Encoded date            : UTC 2020-05-21 16:50:22
Время раздачи: 24/7
[NNM-Club.me]_Christopher Amott - Follow Your Heart.torrent
 Торрент:   Зарегистрирован
 
Зарегистрируйтесь и скачайте торрент!
33.8 KB

Примагнититься
 Зарегистрирован:   26 Сен 2013 22:31:06
 Размер:   212 MB  (
 Рейтинг:   4.5 (Голосов: 11)
 Поблагодарили:   26
 Проверка:   Оформление проверено модератором 26 Сен 2013 22:41:07
Как cкачать  ·  Как раздать  ·  Правильно оформить  ·  Поднять ратио!  
Показать сообщения:   
Начать новую тему   Ответить на тему    Торрент-трекер NNM-Club -> Аудио и Видео -> Музыка Lossless (ALAC) Часовой пояс: GMT + 3
Страница 1 из 1