Классический форум-трекер
canvas not supported
Нас вместе: 4 206 136

Гарри Поттер и философский камень / Harry Potter and the Sorcerer's Stone (2001) BDRip [576p] iPad


 
 
RSS
Начать новую тему   Ответить на тему    Торрент-трекер NNM-Club -> Аудио и Видео -> Зарубежное видео для устройств Apple
Автор Сообщение
shax87 ®
Стаж: 11 лет 5 мес.
Сообщений: 215
Ratio: 445.815
Раздал: 25.15 TB
Поблагодарили: 17854
100%
Откуда: Санкт-Петербург
russia.gif
Гарри Поттер и философский камень / Harry Potter and the Sorcerer's Stone (2001) BDRip [576p] iPad
Русское название: Гарри Поттер и философский камень
Оригинальное название: Harry Potter and the Sorcerer's Stone
Год: 2001
Страна: США, Великобритания
Жанр: фэнтези, приключения, семейный

Продолжительность: 02:32:21
Перевод: Профессиональный дублированный
Оригинальная аудиодорожка: английская
Субтитры: нет
Навигация по главам: есть

Режиссёр: Крис Коламбус
Сценарий: Стивен Кловз, Дж.К. Роулинг
В ролях: Дэниэл Рэдклифф, Руперт Гринт, Эмма Уотсон, Ричард Харрис, Алан Рикман, Мэгги Смит, Робби Колтрейн, Том Фелтон, Мэттью Льюис, Иэн Харт

Описание: Обычный лондонский мальчик Гарри Поттер на 11-м году жизни узнает, что он — осиротевший сын двух могущественных волшебников, и сам обладает магической силой.
В Хогвартской школе чародейства и волшебства Гарри попадает в водоворот невероятных приключений. Он изучает квиддич — спорт высшего пилотажа, играет в захватывающую игру живыми шахматными фигурами, встречается с Темным Волшебником, который хочет его уничтожить.



Качество видео: BDRip
Исходник: Blu-ray disc
Формат: MP4 (контейнер m4v)
Видео: AVC, 1024x424 (2.40:1) at 23.976 fps, AVC at 2343 kbps avg, 0.225 bit/pixel
Аудио: 48 kHz, AAC, 2ch, 128 Kbps | Русский | Дублированный
Аудио: 48 kHz, AAC, 2ch, 128 Kbps | Английский | Оригинальный
Общее
Полное имя : F:\Downloads\Harry Potter and the Sorcerer's Stone.2001.BDRip.iPad.m4v
Формат : MPEG-4
Профиль формата : Base Media / Version 2
Идентификатор кодека : mp42
Размер файла : 2,78 Гбайт
Продолжительность : 2 ч. 32 м.
Режим общего битрейта : Переменный
Общий поток : 2613 Кбит/сек
Название фильма : Гарри Поттер и философский камень
Исполнитель : Chris Columbus
Жанр : Kids & Family
Дата записи : 2001-11-04T08:00:00Z
Дата кодирования : UTC 2013-09-27 10:18:53
Дата пометки : UTC 2013-09-27 17:34:30
Программа кодирования : HandBrake 0.9.8 2012071700

Видео
Идентификатор : 1
Формат : AVC
Формат/Информация : Advanced Video Codec
Профиль формата : High@L3.1
Параметр CABAC формата : Да
Параметр ReFrames формата : 8 кадров
Идентификатор кодека : avc1
Идентификатор кодека/Информация : Advanced Video Coding
Продолжительность : 2 ч. 32 м.
Вид битрейта : Переменный
Битрейт : 2343 Кбит/сек
Ширина : 1024 пикселя
Высота : 424 пикселя
Соотношение сторон : 2,40:1
Режим частоты кадров : Переменный
Частота кадров : 23,976 кадра/сек
Минимальная частота кадров : 23,974 кадра/сек
Максимальная частота кадров : 23,981 кадра/сек
Цветовое пространство : YUV
Субдискретизация насыщенности : 4:2:0
Битовая глубина : 8 бит
Тип развёртки : Прогрессивная
Бит/(Пиксели*Кадры) : 0.225
Размер потока : 2,49 Гбайт (90%)
Библиотека кодирования : x264 core 120
Настройки программы : cabac=1 / ref=9 / deblock=1:-1:-1 / analyse=0x3:0x133 / me=umh / subme=9 / psy=1 / psy_rd=1.00:0.15 / mixed_ref=1 / me_range=32 / chroma_me=1 / trellis=2 / 8x8dct=1 / cqm=0 / deadzone=21,11 / fast_pskip=1 / chroma_qp_offset=-3 / threads=6 / sliced_threads=0 / nr=0 / decimate=1 / interlaced=0 / bluray_compat=0 / constrained_intra=0 / bframes=9 / b_pyramid=1 / b_adapt=2 / b_bias=0 / direct=1 / weightb=1 / open_gop=0 / weightp=2 / keyint=240 / keyint_min=24 / scenecut=40 / intra_refresh=0 / rc_lookahead=40 / rc=crf / mbtree=1 / crf=18.0 / qcomp=0.60 / qpmin=3 / qpmax=69 / qpstep=4 / ip_ratio=1.40 / aq=1:0.90
Дата кодирования : UTC 2013-09-27 10:18:53
Дата пометки : UTC 2013-09-27 17:00:29
Основные цвета : BT.709
Характеристики трансфера : BT.709
Коэффициенты матрицы : BT.709

Аудио #1
Идентификатор : 2
Формат : AAC
Формат/Информация : Advanced Audio Codec
Профиль формата : LC
Идентификатор кодека : 40
Продолжительность : 2 ч. 32 м.
Вид битрейта : Переменный
Битрейт : 128 Кбит/сек
Максимальный битрейт : 225 Кбит/сек
Каналы : 2 канала
Расположение каналов : Front: L R
Частота : 48,0 КГц
Метод сжатия : С потерями
Задержка видео : 83 мс.
Размер потока : 139 Мбайт (5%)
Язык : Russian
Дата кодирования : UTC 2013-09-27 10:18:53
Дата пометки : UTC 2013-09-27 17:00:28

Аудио #2
Идентификатор : 3
Формат : AAC
Формат/Информация : Advanced Audio Codec
Профиль формата : LC
Идентификатор кодека : 40
Продолжительность : 2 ч. 32 м.
Вид битрейта : Переменный
Битрейт : 128 Кбит/сек
Максимальный битрейт : 165 Кбит/сек
Каналы : 2 канала
Расположение каналов : Front: L R
Частота : 48,0 КГц
Метод сжатия : С потерями
Задержка видео : 83 мс.
Размер потока : 139 Мбайт (5%)
Язык : English
Дата кодирования : UTC 2013-09-27 10:18:53
Дата пометки : UTC 2013-09-27 17:00:28

Текст
Идентификатор : 5
Формат : Apple text
Идентификатор кодека : text
Продолжительность : 2 ч. 32 м.
Вид битрейта : Переменный
Битрейт : 1 бит/сек
Задержка видео : 83 мс.
Размер потока : 831 байт (0%)
Дата кодирования : UTC 2013-09-27 17:34:30
Дата пометки : UTC 2013-09-27 17:34:30
x264 [info]: frame I:2068 Avg QP:15.15 size: 86320
x264 [info]: frame P:44562 Avg QP:18.41 size: 26424
x264 [info]: frame B:172551 Avg QP:20.98 size: 7657
x264 [info]: consecutive B-frames: 2.0% 2.3% 5.3% 19.2% 16.4% 31.8% 10.1% 7.8% 2.9% 2.1%
x264 [info]: mb I I16..4: 9.7% 69.0% 21.3%
x264 [info]: mb P I16..4: 1.2% 12.8% 1.8% P16..4: 38.8% 20.0% 16.2% 2.1% 0.8% skip: 6.3%
x264 [info]: mb B I16..4: 0.1% 1.4% 0.1% B16..8: 43.3% 10.1% 2.8% direct: 6.6% skip:35.7% L0:42.5% L1:44.4% BI:13.1%
x264 [info]: 8x8 transform intra:80.2% inter:58.9%
x264 [info]: coded y,uvDC,uvAC intra: 92.4% 85.7% 63.0% inter: 28.3% 24.3% 3.7%
x264 [info]: i16 v,h,dc,p: 29% 12% 20% 40%
x264 [info]: i8 v,h,dc,ddl,ddr,vr,hd,vl,hu: 13% 8% 8% 9% 13% 12% 12% 11% 13%
x264 [info]: i4 v,h,dc,ddl,ddr,vr,hd,vl,hu: 15% 7% 4% 9% 15% 14% 13% 11% 13%
x264 [info]: i8c dc,h,v,p: 42% 24% 18% 16%
x264 [info]: Weighted P-Frames: Y:11.1% UV:4.9%
x264 [info]: ref P L0: 54.2% 13.2% 14.1% 6.5% 4.4% 3.2% 2.5% 1.5% 0.3% 0.0%
x264 [info]: ref B L0: 80.0% 9.6% 4.9% 2.2% 1.5% 1.1% 0.6%
x264 [info]: ref B L1: 92.0% 8.0%
x264 [info]: kb/s:2342.82
Media Type: Movie
Sort Name: Harry Potter and the Sorcerer's Stone
XID: Apple:vendor_id:2001-689
Content ID: 271469503
ScreenWriters: Стивен Кловз, Дж.К. Роулинг
Producers: Дэвид Хейман, Тодд Арноу, Майкл Барнатан
Director: Крис Коламбус
Cast: Дэниэл Рэдклифф, Руперт Гринт, Эмма Уотсон, Ричард Харрис, Алан Рикман, Мэгги Смит, Робби Колтрейн, Том Фелтон, Мэттью Льюис, Иэн Харт
Long Description: Обычный лондонский мальчик Гарри Поттер на 11-м году жизни узнает, что он — осиротевший сын двух могущественных волшебников, и сам обладает магической силой.
В Хогвартской школе чародейства и волшебства Гарри попадает в водоворот невероятных приключений. Он изучает квиддич — спорт высшего пилотажа, играет в захватывающую игру живыми шахматными фигурами, встречается с Темным Волшебником, который хочет его уничтожить.
Description: Обычный лондонский мальчик Гарри Поттер на 11-м году жизни узнает, что он — осиротевший сын двух могущественных волшебников, и сам обладает магической силой.
Release Date: 2001-11-04T08:00:00Z
Genre: Kids & Family
Artist: Chris Columbus
Name: Гарри Поттер и философский камень
Comments: «Путешествие в твою мечту»
Скриншоты:

Рип сделан по заказу - aquarelle
Время раздачи: 24/7
[NNM-Club.me]_Harry Potter and the Sorcerer's Stone.2001.BDRip.iPad.m4v.torrent
 Торрент: Платиновая раздача  Зарегистрирован
 
Скачать


Примагнититься
 Зарегистрирован:   27 Сен 2013 21:15:16
 Размер:   2.78 GB  (
 Рейтинг:   4.8 (Голосов: 60)
 Поблагодарили:   225
 Проверка:   Оформление проверено модератором 28 Сен 2013 03:24:25
Как cкачать  ·  Как раздать  ·  Правильно оформить  ·  Поднять ратио!  
Показать сообщения:   
Начать новую тему   Ответить на тему    Торрент-трекер NNM-Club -> Аудио и Видео -> Зарубежное видео для устройств Apple Часовой пояс: GMT + 3
Страница 1 из 1