Классический форум-трекер
canvas not supported
Нас вместе: 4 114 378

Гарри Поттер и тайная комната / Harry Potter and the Chamber of Secrets (2002) BDRip [576p] iPad


 
 
RSS
Начать новую тему   Ответить на тему    Торрент-трекер NNM-Club -> Аудио и Видео -> Зарубежное видео для устройств Apple
Автор Сообщение
shax87 ®
Стаж: 9 лет 1 мес.
Сообщений: 215
Ratio: 445,815
Раздал: 25,15 TB
Поблагодарили: 17462
100%
Откуда: Санкт-Петербург
russia.gif
Гарри Поттер и тайная комната / Harry Potter and the Chamber of Secrets (2002) BDRip [576p] iPad
Русское название: Гарри Поттер и тайная комната
Оригинальное название: Harry Potter and the Chamber of Secrets
Год: 2002
Страна: США, Великобритания, Германия
Жанр: фэнтези, детектив, приключения, семейный

Продолжительность: 02:40:56
Перевод: Профессиональный дублированный
Оригинальная аудиодорожка: английская
Субтитры: нет
Навигация по главам: есть

Режиссёр: Крис Коламбус
Сценарий: Стивен Кловз, Дж.К. Роулинг
В ролях: Дэниэл Рэдклифф, Руперт Гринт, Эмма Уотсон, Том Фелтон, Кеннет Брэна, Бонни Райт, Алан Рикман, Ричард Харрис, Мэгги Смит, Робби Колтрейн

Описание: Гарри Поттер переходит на второй курс Школы чародейства и волшебства Хогвартс. Эльф Добби предупреждает Гарри об опасности, которая поджидает его там, и просит больше не возвращаться в школу.
Юный волшебник не следует совету эльфа и становится свидетелем таинственных событий, разворачивающихся в Хогвартсе. Вскоре Гарри и его друзья узнают о существовании Тайной Комнаты и сталкиваются с новыми приключениями, пытаясь победить темные силы.



Качество видео: BDRip
Исходник: Blu-ray disc
Формат: MP4 (контейнер m4v)
Видео: AVC, 1024x424 (2.40:1) at 23.976 fps, AVC at 1739 kbps avg, 0.167 bit/pixel
Аудио: 48 kHz, AAC, 2ch, 128 Kbps | Русский | Дублированный
Аудио: 48 kHz, AAC, 2ch, 128 Kbps | Английский | Оригинальный
Общее
Полное имя : F:\Downloads\Harry Potter and the Chamber of Secrets.2002.BDRip.iPad.m4v
Формат : MPEG-4
Профиль формата : Base Media / Version 2
Идентификатор кодека : mp42
Размер файла : 2,26 Гбайт
Продолжительность : 2 ч. 40 м.
Режим общего битрейта : Переменный
Общий поток : 2009 Кбит/сек
Название фильма : Гарри Поттер и Тайная комната
Исполнитель : Chris Columbus
Жанр : Kids & Family
Дата записи : 2002-11-03T07:00:00Z
Дата кодирования : UTC 2013-09-25 10:30:51
Дата пометки : UTC 2013-09-27 16:57:19
Программа кодирования : HandBrake 0.9.8 2012071700

Видео
Идентификатор : 1
Формат : AVC
Формат/Информация : Advanced Video Codec
Профиль формата : High@L3.1
Параметр CABAC формата : Да
Параметр ReFrames формата : 8 кадров
Идентификатор кодека : avc1
Идентификатор кодека/Информация : Advanced Video Coding
Продолжительность : 2 ч. 40 м.
Вид битрейта : Переменный
Битрейт : 1739 Кбит/сек
Ширина : 1024 пикселя
Высота : 424 пикселя
Соотношение сторон : 2,40:1
Режим частоты кадров : Переменный
Частота кадров : 23,976 кадра/сек
Минимальная частота кадров : 23,974 кадра/сек
Максимальная частота кадров : 23,981 кадра/сек
Цветовое пространство : YUV
Субдискретизация насыщенности : 4:2:0
Битовая глубина : 8 бит
Тип развёртки : Прогрессивная
Бит/(Пиксели*Кадры) : 0.167
Размер потока : 1,95 Гбайт (87%)
Библиотека кодирования : x264 core 120
Настройки программы : cabac=1 / ref=9 / deblock=1:-1:-1 / analyse=0x3:0x133 / me=umh / subme=9 / psy=1 / psy_rd=1.00:0.15 / mixed_ref=1 / me_range=32 / chroma_me=1 / trellis=2 / 8x8dct=1 / cqm=0 / deadzone=21,11 / fast_pskip=1 / chroma_qp_offset=-3 / threads=6 / sliced_threads=0 / nr=0 / decimate=1 / interlaced=0 / bluray_compat=0 / constrained_intra=0 / bframes=9 / b_pyramid=1 / b_adapt=2 / b_bias=0 / direct=1 / weightb=1 / open_gop=0 / weightp=2 / keyint=240 / keyint_min=24 / scenecut=40 / intra_refresh=0 / rc_lookahead=40 / rc=crf / mbtree=1 / crf=18.0 / qcomp=0.60 / qpmin=3 / qpmax=69 / qpstep=4 / ip_ratio=1.40 / aq=1:0.90
Дата кодирования : UTC 2013-09-25 10:30:51
Дата пометки : UTC 2013-09-25 15:03:17
Основные цвета : BT.709
Характеристики трансфера : BT.709
Коэффициенты матрицы : BT.709

Аудио #1
Идентификатор : 2
Формат : AAC
Формат/Информация : Advanced Audio Codec
Профиль формата : LC
Идентификатор кодека : 40
Продолжительность : 2 ч. 40 м.
Вид битрейта : Переменный
Битрейт : 128 Кбит/сек
Максимальный битрейт : 209 Кбит/сек
Каналы : 2 канала
Расположение каналов : Front: L R
Частота : 48,0 КГц
Метод сжатия : С потерями
Задержка видео : 83 мс.
Размер потока : 147 Мбайт (6%)
Язык : Russian
Дата кодирования : UTC 2013-09-25 10:30:51
Дата пометки : UTC 2013-09-25 15:03:17

Аудио #2
Идентификатор : 3
Формат : AAC
Формат/Информация : Advanced Audio Codec
Профиль формата : LC
Идентификатор кодека : 40
Продолжительность : 2 ч. 40 м.
Вид битрейта : Переменный
Битрейт : 128 Кбит/сек
Максимальный битрейт : 165 Кбит/сек
Каналы : 2 канала
Расположение каналов : Front: L R
Частота : 48,0 КГц
Метод сжатия : С потерями
Задержка видео : 83 мс.
Размер потока : 147 Мбайт (6%)
Язык : English
Дата кодирования : UTC 2013-09-25 10:30:51
Дата пометки : UTC 2013-09-25 15:03:17

Текст
Идентификатор : 5
Формат : Apple text
Идентификатор кодека : text
Продолжительность : 2 ч. 40 м.
Вид битрейта : Переменный
Битрейт : 1 бит/сек
Задержка видео : 83 мс.
Размер потока : 879 байт (0%)
Дата кодирования : UTC 2013-09-27 16:57:19
Дата пометки : UTC 2013-09-27 16:57:19
x264 [info]: frame I:2284 Avg QP:14.58 size: 73352
x264 [info]: frame P:49007 Avg QP:17.69 size: 20189
x264 [info]: frame B:180226 Avg QP:21.28 size: 5227
x264 [info]: consecutive B-frames: 2.0% 2.3% 5.4% 26.5% 14.0% 36.6% 4.1% 7.8% 0.7% 0.6%
x264 [info]: mb I I16..4: 6.7% 71.2% 22.0%
x264 [info]: mb P I16..4: 2.0% 11.6% 1.6% P16..4: 39.7% 18.7% 15.1% 1.8% 0.7% skip: 8.8%
x264 [info]: mb B I16..4: 0.1% 0.9% 0.1% B16..8: 41.5% 8.3% 2.1% direct: 4.7% skip:42.3% L0:42.9% L1:44.9% BI:12.2%
x264 [info]: 8x8 transform intra:76.1% inter:57.4%
x264 [info]: coded y,uvDC,uvAC intra: 84.3% 80.4% 54.9% inter: 20.4% 19.0% 2.8%
x264 [info]: i16 v,h,dc,p: 39% 12% 13% 36%
x264 [info]: i8 v,h,dc,ddl,ddr,vr,hd,vl,hu: 15% 9% 8% 9% 12% 12% 12% 11% 13%
x264 [info]: i4 v,h,dc,ddl,ddr,vr,hd,vl,hu: 15% 8% 4% 9% 14% 14% 12% 11% 12%
x264 [info]: i8c dc,h,v,p: 43% 23% 20% 15%
x264 [info]: Weighted P-Frames: Y:7.3% UV:2.5%
x264 [info]: ref P L0: 57.5% 12.1% 13.7% 6.0% 4.0% 2.9% 2.2% 1.3% 0.2% 0.0%
x264 [info]: ref B L0: 83.6% 8.2% 4.0% 1.8% 1.2% 0.9% 0.5%
x264 [info]: ref B L1: 93.6% 6.4%
x264 [info]: kb/s:1738.99
Media Type: Movie
Sort Name: Harry Potter and the Chamber of Secrets
XID: Apple:vendor_id:2002-688
Content ID: 272931585
ScreenWriters: Стивен Кловз, Дж.К. Роулинг
Producers: Дэвид Хейман, Майкл Барнатан, Дэвид Баррон
Director: Крис Коламбус
Cast: Дэниэл Рэдклифф, Руперт Гринт, Эмма Уотсон, Том Фелтон, Кеннет Брэна, Бонни Райт, Алан Рикман, Ричард Харрис, Мэгги Смит, Робби Колтрейн
Long Description: Гарри Поттер переходит на второй курс Школы чародейства и волшебства Хогвартс. Эльф Добби предупреждает Гарри об опасности, которая поджидает его там, и просит больше не возвращаться в школу.
Юный волшебник не следует совету эльфа и становится свидетелем таинственных событий, разворачивающихся в Хогвартсе. Вскоре Гарри и его друзья узнают о существовании Тайной Комнаты и сталкиваются с новыми приключениями, пытаясь победить темные силы.
Description: Гарри Поттер переходит на второй курс Школы чародейства и волшебства Хогвартс. Эльф Добби предупреждает Гарри об опасности, которая поджидает его там, и просит больше не возвращаться в школу.
Release Date: 2002-11-03T07:00:00Z
Genre: Kids & Family
Artist: Chris Columbus
Name: Гарри Поттер и Тайная комната
Comments: «Зло вернулось в Хогвартс»
Скриншоты:

Рип сделан по заказу - aquarelle
Время раздачи: 24/7
[NNM-Club.me]_Harry Potter and the Chamber of Secrets.2002.BDRip.iPad.m4v.torrent
 Торрент: Платиновая раздача  Зарегистрирован
 
Скачать


Примагнититься
 Зарегистрирован:   27 Сен 2013 21:17:55
 Размер:   2,26 GB  (
 Рейтинг:   4,9 (Голосов: 54)
 Поблагодарили:   195
 Проверка:   Оформление проверено модератором 28 Сен 2013 15:31:32
Как cкачать  ·  Как раздать  ·  Правильно оформить  ·  Поднять ратио!  
Показать сообщения:   
Начать новую тему   Ответить на тему    Торрент-трекер NNM-Club -> Аудио и Видео -> Зарубежное видео для устройств Apple Часовой пояс: GMT + 3
Страница 1 из 1