Классический форум-трекер
canvas not supported
Нас вместе: 4 171 754

Реальные пацаны (Сезон №5. Часть №2, серии 1-16(17-32)) (2013) WEBRip (Обновляемая)


 
 
RSS
Начать новую тему   Ответить на тему    Торрент-трекер NNM-Club -> Отечественные сериалы
Автор Сообщение
svlesin ®
Модератор Документалистики/TV
RG Releasers
Релизер 25000+ Uploader 300+
Стаж: 12 лет
Сообщений: 33818
Ratio: 1991.953
Поблагодарили: 3262440
100%
russia.gif
Реальные пацаны (Сезон №5. Часть №2) (2013) WEBRip
Режиссер / Телекомпания: ТНТ
Русское название: Реальные пацаны
Год выпуска: 2013
Жанр: Комедия

Режиссер: Жанна Кадникова

В ролях: Николай Наумов, Антон Богданов, Владимир Селиванов, Станислав Тляшев, Зоя Бербер, Игорь Ознобихин, Марина Федункив, Валентина Мазунина, Алексей Базанов, Армен Бежанян, Мария Шекунова

Описание:
Лера предлагает Коляну сделать паузу в отношениях. Наумов переезжает жить к Антохе и Вовану в комфортабельный автосервис. Через пару месяцев холостой жизни Колян решает, что пауза затянулась, но неожиданная встреча с женой заканчивается тяжелой ссорой.

Продолжительность: Каждая серия х ~ 00:25:00

Видеокодек: XviD
Битрейт видео: ~1615 kb/s
Размер кадра: 720 x 400
Качество видео: WEBRip
Аудиокодек: MP3, 2ch.
Битрейт аудио: 128 kb/s
Формат : AVI
Формат/Информация : Audio Video Interleave
Размер файла : 280 Мбайт
Продолжительность : 22 м.
Общий поток : 1753 Кбит/сек
Программа кодирования : VirtualDubMod 1.5.10.3 | www.virtualdub-fr.org || (build 2550/release)
Библиотека кодирования : VirtualDubMod build 2550/release

Видео
Идентификатор : 0
Формат : MPEG-4 Visual
Профиль формата : Advanced Simple@L5
Параметр BVOP формата : 2
Параметр QPel формата : Нет
Параметр GMC формата : Без точки перехода
Параметр матрицы формата : Default (MPEG)
Идентификатор кодека : XVID
Идентификатор кодека/Подсказка : XviD
Продолжительность : 22 м.
Битрейт : 1615 Кбит/сек
Ширина : 720 пикселей
Высота : 400 пикселей
Соотношение сторон : 16:9
Частота кадров : 25,000 кадров/сек
Цветовое пространство : YUV
Субдискретизация насыщенности : 4:2:0
Битовая глубина : 8 бит
Тип развёртки : Прогрессивная
Метод сжатия : С потерями
Бит/(Пиксели*Кадры) : 0.224
Размер потока : 258 Мбайт (92%)
Библиотека кодирования : XviD 1.2.1 (UTC 2008-12-04)

Аудио
Идентификатор : 1
Формат : MPEG Audio
Версия формата : Version 1
Профиль формата : Layer 3
Идентификатор кодека : 55
Идентификатор кодека/Подсказка : MP3
Продолжительность : 22 м.
Вид битрейта : Постоянный
Битрейт : 128 Кбит/сек
Каналы : 2 канала
Частота : 44,1 КГц
Метод сжатия : С потерями
Размер потока : 20,5 Мбайт (7%)
Выравнивание : Разделение по промежуткам
Продолжительность промежутка : 40 мс. (1,00 видеокадр)
Время предзагрузки промежутка : 500 мс.
Библиотека кодирования : LAME3.99r
Настройки программы : -m s -V 4 -q 2 -lowpass 17 -b 128
Внимание! Раздача ведётся путём добавления новых серий; при каждом добавлении создаётся новый торрент.
Чтобы начать докачку новой серии, пользователям необходимо сделать следующее:
1. Остановить скачивание;
2. Удалить старый торрент у себя из клиента (старые серии удалять не надо);
3. Скачать новый торрент и запустить его у себя в клиенте вместо старого, при этом указать клиенту путь в старую папку куда и должно происходить скачивание новых серий. Ваш клиент при этом должен произвести хеширование (проверку) старой папки и будет докачивать только те серии, которых у вас ещё нет. Старые серии при этом не удаляются, а продолжают раздаваться! Eсли вы уже удалили старые серии, то предотвратить повторную закачку старых серий можно, отжав галочку в соответствующих местах при запуске нового торрента.
Скриншоты:


Время раздачи: 24/7. До первых 5 скачавших.
Реальные пацаны на NoNaMe Club
[NNM-Club.me]_Real'nyie patsanyi. Sezon №5. CHast' №2 (2013)_WEBRip.torrent
 Торрент: Платиновая раздача  Зарегистрирован
 
Скачать


Примагнититься
 Зарегистрирован:   23 Окт 2013 19:58:04
 Размер:   4.63 GB  (
 Рейтинг:   4.5 (Голосов: 171)
 Поблагодарили:   556
 Проверка:   Оформление проверено модератором 23 Окт 2013 20:07:22
Как cкачать  ·  Как раздать  ·  Правильно оформить  ·  Поднять ратио!  

_________________
Уважаемые пользователи Клуба! От меня релизов больше не будет. Спасибо всем, кто благодарил меня и говорил/нажимал «Спасибо»!
ZoNoW
Модератор Видео
Стаж: 10 лет 6 мес.
Сообщений: 7872
Ratio: 688K
Раздал: 82.88 TB
Поблагодарили: 3651077
100%
ussr.gif
svlesin
Это 5 сезон, продолжение. Даже на сайте тнт написано что это 17 серия :подмигивание:

_________________
Правила оформления релизов в разделе «Видео» | Исправил релиз? - напиши об этом в ЛС
vannza
Стаж: 10 лет 10 мес.
Сообщений: 769
Ratio: 6.107
Поблагодарили: 2453
100%
Откуда: Приднестровье
turkey.gif
Оставить как и есть нет разницы вобще!! Главное Сериал спасибо За релиз :респект:
edd165
Стаж: 8 лет 10 мес.
Сообщений: 1
Ratio: 1.441
1.5%
Как звук здесь? Изображение не отстает?
lis_kotlas
Стаж: 11 лет 2 мес.
Сообщений: 6
Ratio: 11.739
0.32%
Каким кодеком жмешь???? Smart LG не хочет показывать ((((
игорь 77
Стаж: 10 лет 10 мес.
Сообщений: 1123
Ratio: 134.031
100%
russia.gif
svlesin
Спасибо за раздачу. Хороший, прикольный сериал, в особенности Вован, непередаваемое чудо.)

_________________
kx77
 
Стаж: 9 лет
Сообщений: 1663
Ratio: 145.112
Поблагодарили: 2383
100%
Коляна жалко.
Просмотр доступен только для зарегистрированных пользователей
alal
Стаж: 10 лет 7 мес.
Сообщений: 7
Ratio: 1.353
100%
Откуда: Днепропетровск
ukraine.gif
супер сериал!
vspyshkin
Стаж: 10 лет 8 мес.
Сообщений: 2
Ratio: 0.437
2.5%
Дата выхода 6 сезона сериала «Реальные пацаны» назначен на февраль 2014 года. Первая серия нового сезона выйдет 17 февраля 2014.
Показать сообщения:   
Начать новую тему   Ответить на тему    Торрент-трекер NNM-Club -> Отечественные сериалы Часовой пояс: GMT + 3
Страница 1 из 1