Классический форум-трекер
canvas not supported
Нас вместе: 4 211 002

Менталист / The Mentalist (2013) HDTVRip [H.264/720p-LQ] [Сезон 6, Серия 1-21 из 22] (napaBo3uk) (обновляемая)


Страницы:  1, 2, 3, 4, 5  След. 
 
RSS
Начать новую тему   Ответить на тему    Торрент-трекер NNM-Club -> Зарубежные сериалы -> Менталист / The Mentalist ; Теория Лжи / Lie To Me
Автор Сообщение
Vladimir_svt ®
Стаж: 11 лет 8 мес.
Сообщений: 115
Ratio: 7.495
Поблагодарили: 2923
7.53%
russia.gif
Менталист / The Mentalist (2013) HDTVRip [H.264/720p-LQ] [Сезон 6, Серия 1-21 из 22] (napaBo3uk) (обновляемая)
Год выпуска: 2013
Жанр: Детектив

Перевод: Одноголосый закадровый, любительский
Озвучка / Автор перевода: napaBo3uk



Режиссер: Крис Лонг, Дэвид Баррет, Чарльз Бисон
Актеры: Саймон Бейкер, Робин Танни, Аманда Риджетти, Тим Кенг, Овайн Йомен, Грегори Итцин

Описание фильма:
Патрик Джейн — детектив и независимый консультант из Калифорнийского Бюро Расследований (КБР), он использует свои отточенные, как лезвие, навыки наблюдения для раскрытия тяжких преступлений. В самом Бюро Джейн известен за частые нарушения протокола, а также за его звездное прошлое: он работал медиумом, однако теперь сам признает, что симулировал паранормальные способности. Роль Джейна в раскрытии целой серии загадочных преступлений высоко ценится коллегами. Но суровый старший агент Тереза Лисбон против того, чтоб Джейн работал с ее отрядом, и то вынужденно признает его успехи, то критикует его за театральность, нарциссизм и отсутствие границ.

Продолжительность: 00:42:00 серия
Качество видео: HDTVRip
Сэмпл: Скачать

Видеокодек: MPEG-4 AVC/H.264
Битрейт видео: ~2652 Кбит/сек
Размер кадра: 1280x720 (16:9)
Аудио 1 Rus: MP3, 48,0 КГц, 2 канала, 160 Кбит/сек
Аудио 2 Eng: AC-3, 48,0 КГц, 6 каналов, 384 Кбит/сек
Общее
Уникальный идентификатор : 244226801033342293735292091581727984882 (0xB7BC5EF57A727DA89ED6DA599E034CF2)
Полное имя : C:\GameXP\TheMentalist6_720\Mentalist.s06e01.napaBo3uk.720p.mkv
Формат : Matroska
Версия формата : Version 2
Размер файла : 980 Мбайт
Продолжительность : 42 м.
Общий поток : 3261 Кбит/сек
Дата кодирования : UTC 2013-10-01 10:20:15
Программа кодирования : mkvmerge v5.8.0 ('No Sleep / Pillow') built on Sep 2 2012 15:37:04
Библиотека кодирования : libebml v1.2.3 + libmatroska v1.3.0

Видео
Идентификатор : 1
Формат : AVC
Формат/Информация : Advanced Video Codec
Профиль формата : High@L4.1
Параметр CABAC формата : Да
Параметр ReFrames формата : 8 кадров
Режим смешивания : Header stripping
Идентификатор кодека : V_MPEG4/ISO/AVC
Продолжительность : 42 м.
Битрейт : 2652 Кбит/сек
Ширина : 1280 пикселей
Высота : 720 пикселей
Соотношение сторон : 16:9
Режим частоты кадров : Постоянный
Частота кадров : 23,976 кадра/сек
Цветовое пространство : YUV
Субдискретизация насыщенности : 4:2:0
Битовая глубина : 8 бит
Тип развёртки : Прогрессивная
Бит/(Пиксели*Кадры) : 0.120
Размер потока : 797 Мбайт (81%)
Библиотека кодирования : x264 core 138 r2358 9e941d1
Настройки программы : cabac=1 / ref=8 / deblock=1:-2:-2 / analyse=0x3:0x113 / me=umh / subme=9 / psy=1 / psy_rd=1.00:0.00 / mixed_ref=1 / me_range=24 / chroma_me=1 / trellis=1 / 8x8dct=1 / cqm=0 / deadzone=21,11 / fast_pskip=0 / chroma_qp_offset=-2 / threads=18 / lookahead_threads=2 / sliced_threads=0 / nr=0 / decimate=1 / interlaced=0 / bluray_compat=0 / constrained_intra=0 / bframes=5 / b_pyramid=2 / b_adapt=2 / b_bias=0 / direct=3 / weightb=1 / open_gop=0 / weightp=2 / keyint=250 / keyint_min=23 / scenecut=40 / intra_refresh=0 / rc_lookahead=50 / rc=crf / mbtree=1 / crf=18.0 / qcomp=0.60 / qpmin=0 / qpmax=69 / qpstep=4 / ip_ratio=1.40 / aq=1:1.00
Язык : English
Default : Нет
Forced : Нет

Аудио #1
Идентификатор : 2
Формат : MPEG Audio
Версия формата : Version 1
Профиль формата : Layer 3
Режим : Joint stereo
Расширение режима : MS Stereo
Режим смешивания : Header stripping
Идентификатор кодека : A_MPEG/L3
Идентификатор кодека/Подсказка : MP3
Продолжительность : 42 м.
Вид битрейта : Постоянный
Битрейт : 160 Кбит/сек
Каналы : 2 канала
Частота : 48,0 КГц
Метод сжатия : С потерями
Задержка видео : 16 мс.
Размер потока : 48,1 Мбайт (5%)
Default : Да
Forced : Нет

Аудио #2
Идентификатор : 3
Формат : AC-3
Формат/Информация : Audio Coding 3
Расширение режима : CM (complete main)
Параметр Endianness формата : Big
Режим смешивания : Header stripping
Идентификатор кодека : A_AC3
Продолжительность : 42 м.
Вид битрейта : Постоянный
Битрейт : 384 Кбит/сек
Каналы : 6 каналов
Расположение каналов : Front: L C R, Side: L R, LFE
Частота : 48,0 КГц
Битовая глубина : 16 бит
Метод сжатия : С потерями
Задержка видео : 64 мс.
Размер потока : 115 Мбайт (12%)
Default : Нет
Forced : Нет
01. Роза пустыни (The Desert Rose)
02. Чёрнокрылая красная птица (Black-Winged Redbird)
03. Свадьба в красном (Wedding in Red)
04. Red-Listed (Кровавый список)
05. Красная татуировка (The Red Tattoo)
06. Огонь и сера (Fire and Brimstone)
07. Великий красный дракон (The Great Red Dragon)
08. Красный Джон (Red John)
09. Мои голубые небеса (My Blue Heaven)
10. Зелёный палец (Green Thumb)
11. Белые линии (White Lines)
12. Золотой молоток (The Golden Hammer)
13. Черные вертолеты (Black Helicopters)
14. Серая вода (Grey Water)
15. Белый, как первый снег (White as the Driven Snow)
16. Фиалки (Violets)
17. Серебряные крылья времени (Silver Wings of Time)
18. Зелёный лес (Forest Green)
19. Кареглазые девушки (Brown Eyed Girls)
20. Белый стол (Il Tavolo Bianco)
21. Чёрные сердца
Внимание! Раздача ведётся путём добавления новых серий; при каждом добавлении создаётся новый торрент.
Чтобы начать докачку новой серии, пользователям необходимо сделать следующее:
1. Остановить скачивание;
2. Удалить старый торрент у себя из клиента (старые серии удалять не надо);
3. Скачать новый торрент и запустить его у себя в клиенте вместо старого, при этом указать клиенту путь в старую папку куда и должно происходить скачивание новых серий. Ваш клиент при этом должен произвести хеширование (проверку) старой папки и будет докачивать только те серии, которых у вас ещё нет. Старые серии при этом не удаляются, а продолжают раздаваться! Eсли вы уже удалили старые серии, то предотвратить повторную закачку старых серий можно, отжав галочку в соответствующих местах при запуске нового торрента.
Все раздачи "Менталист / The Mentalist"

Скриншоты:


Время раздачи: до 2-х сидов
 Торрент: Платиновая раздача  Зарегистрирован
 
Скачать


Примагнититься
 Зарегистрирован:   06 Июн 2014 14:48:34
 Размер:   28.8 GB  (
 Рейтинг:   4.7 (Голосов: 162)
 Поблагодарили:   448
 Проверка:   Оформление проверено модератором 06 Июн 2014 21:06:38
Как cкачать  ·  Как раздать  ·  Правильно оформить  ·  Поднять ратио!  
TribelWu
Стаж: 9 лет 9 мес.
Сообщений: 6
Ratio: 17.889
100%
Откуда: Житомир
ussr.gif
Охохо! Спасибище!
Palladio
Стаж: 9 лет 5 мес.
Сообщений: 38
Ratio: 51.357
100%
russia.gif
Пересматривал сериал во всех возможных переводах. Перевод от ПАрАвозика остается наиболее восприимчивым.
frobi
Стаж: 9 лет 6 мес.
Сообщений: 2
Ratio: 27.05
13.64%
да napaBo3uk молодец!
beth
Стаж: 14 лет 5 мес.
Сообщений: 13
Ratio: 6.116
43.21%
ее, началось!!!!
obnaloff77
Стаж: 9 лет 7 мес.
Сообщений: 46
Ratio: 2.4
100%
Паровозику: СПАСИБО!
Дмитрий Валерьевич
Uploader 100+
Стаж: 13 лет
Сообщений: 6789
Ratio: 14K
Раздал: 276 TB
Поблагодарили: 336554
100%
Откуда: Есть такой город – Глазов
russia.gif
 !  Уважаемые одноклубники!

Большая просьба ко всем - ПЕРЕСТАНЬТЕ ФЛУДИТЬ!
Напомню, у нас существуют Правила комментирования торрентов:
Цитата:
5.1. Система комментариев торрентов создана для того чтобы:
- задать вопрос относительно особенностей раздачи, если это недостаточно освещено в описании или аналогичный вопрос не был рассмотрен в комментариях выше,
- сообщить интересную или важную информацию, относящуюся к раздаче.
5.3. Если Вы не намерены подключаться к раздаче - не комментируйте ее.
5.4. В комментариях запрещен какой-либо другой язык, кроме литературного русского.
5.5. Запрещены флейм, флуд и подстрекательства к ним, а также троллинг и прочие провокации.
5.6. Запрещен оверквотинг. Цитируйте только важные, существенные, части сообщения, на которые Вы отвечаете.
Если есть необходимость процитировать длинное сообщение - убирайте его в спойлер.
5.7. Запрещены неаргументированные отрицательные комментарии в отношении релиза; в адрес релизера; в адрес других участников обсуждения.
Помните, раздачи на нашем трекере ни в коей мере не предназначены для удовлетворения ваших личных запросов, если вам не нравится раздача или скорость раздачи - попробуйте поискать что-либо подходящее вам в другом месте без негативных комментариев здесь.


Если флуд не прекратится, то, помимо предупреждений в профиле ВСЕМ флудящим, мы просто закроем тему от добавления новых комментариев.
griffon6
Стаж: 10 лет 4 мес.
Сообщений: 69
Ratio: 48.067
Поблагодарили: 739
100%
ukraine.gif
Когда будет продолжение?

_________________
Боже Великий Єдиний, нам Україну храни!
Vladimir_svt ®
Стаж: 11 лет 8 мес.
Сообщений: 115
Ratio: 7.495
Поблагодарили: 2923
7.53%
russia.gif
ТОРРЕНТ ОБНОВЛЕН. ДОБАВЛЕНА 2 СЕРИЯ
shpritsen
Стаж: 10 лет 5 мес.
Сообщений: 166
Ratio: 52.948
Раздал: 8.522 TB
100%
ukraine.gif
я подписан на изменения в раздаче, но ничего не приходило
(понял, что обновили по покрасневшему торренту).
griffon6
Стаж: 10 лет 4 мес.
Сообщений: 69
Ratio: 48.067
Поблагодарили: 739
100%
ukraine.gif
shpritsen, мне пришло письмо на мейл с уведомлением

_________________
Боже Великий Єдиний, нам Україну храни!
NikBucklov
Стаж: 12 лет
Сообщений: 9
Ratio: 32.824
17.81%
russia.gif
Когда обновляется раздача?Есть какое-то расписание серий?
johnatanb
Стаж: 11 лет 3 мес.
Сообщений: 20
Ratio: 5.86
Раздал: 3.954 TB
2.76%
spain.gif
Вторая серия без перевода, или я что-то пропустил?
Vladimir_svt ®
Стаж: 11 лет 8 мес.
Сообщений: 115
Ratio: 7.495
Поблагодарили: 2923
7.53%
russia.gif
ТОРРЕНТ ОБНОВЛЕН. ДОБАВЛЕНА 3 СЕРИЯ
Sergio-KeA
Стаж: 11 лет 10 мес.
Сообщений: 15
Ratio: 8.729
100%
По поводу расписание выхода серий. в оригинале серии выходят сейчас каждую неделю, воскресенье-понедельник. Перевод на следующий день буквально.
Показать сообщения:   
Начать новую тему   Ответить на тему    Торрент-трекер NNM-Club -> Зарубежные сериалы -> Менталист / The Mentalist ; Теория Лжи / Lie To Me Часовой пояс: GMT + 3
Страницы:  1, 2, 3, 4, 5  След.
Страница 1 из 5