Классический форум-трекер
canvas not supported
Нас вместе: 4 165 124

Алексей Брин | RedGiant (Trapcode) Particular 2.1: Основы (2012) [HDRip]


 
 
RSS
Начать новую тему   Ответить на тему    Торрент-трекер NNM-Club -> Обучающие видеоматериалы -> Другие видеокурсы
Автор Сообщение
anonymous
Стаж: 13 лет 3 мес.
Сообщений: 3137
Поблагодарили: 91728
0%
Алексей Брин | RedGiant (Trapcode) Particular 2.1: Основы (2012) [HDRip]
Автор (режиссер): Алексей Брин
Официальный сайт: designar.ru
Название: RedGiant (Trapcode) Particular 2.1: Основы
Год выпуска: 2012
Жанр: Компьютерная графика

Продолжительность: 01:25:36
Качество видео: HDRip
Видеокодек: MPEG-4
Битрейт видео: ~650 Kbps, 30.000 fps
Размер кадра: 1280x720

Аудиокодек: AAC
Битрейт аудио: 126 Kbps, 2 channels, 44.1 KHz

Описание:
Trapcode Particular является одним из самых популярных и мощных плагинов для After Effects. Благодаря большому количеству настроек Particular позволяет выдавать очень хорошие результаты, а вместе с быстрым просчетом, становится стандартом индустрии для пользователя AE.

Курс направлен на новичков, и рассказывает о 99% параметров данного плагина. Информации много, но она разбита на короткие, от 5 до 15 минут, уроки. Одно видео рассказывает об одной вкладке, поэтому нет необходимости что-то проматывать или запоминать таймкод.


  1. Вкладка Emitter – настройка типов генерации частиц;
  2. Вкладка Particle – настройка параметров частиц;
  3. Вкладка Shading – настройка реакции частиц на источники света;
  4. Вкладка Physics – настройка параметров физики (режимы air и bounce);
  5. Вкладка AUX / World Transform – настройка появления дополнительных частиц, глобальные настройки для ориентации частиц в пространстве;
  6. Вкладка Visibility/Rendering – настройки отображения частиц (dof, motion blur и т.п.).

  1. Практика #1 – создание эффекта дождя;
  2. Практика #2 – создание эффекта падающих снежинок;
  3. Практика #3 – создание частиц боке;
  4. Практика #4 – использование анимированных слоёв в качестве эммитеров;
  5. Практика #5 – создание спиральной траекторий.
General
Complete name : ...\vol.01-Particular.Base\video\1-emitter.mp4
Format : MPEG-4
Format profile : Base Media / Version 2
Codec ID : mp42
File size : 75.6 MiB
Duration : 12mn 56s
Overall bit rate : 817 Kbps
Encoded date : UTC 2012-09-03 15:09:46
Tagged date : UTC 2013-10-04 13:02:49

Video
ID : 1
Format : AVC
Format/Info : Advanced Video Codec
Format profile : High@L3.1
Format settings, CABAC : Yes
Format settings, ReFrames : 4 frames
Codec ID : avc1
Codec ID/Info : Advanced Video Coding
Duration : 12mn 56s
Source duration : 12mn 56s
Bit rate mode : Variable
Bit rate : 650 Kbps
Width : 1 280 pixels
Height : 720 pixels
Display aspect ratio : 16:9
Frame rate mode : Constant
Frame rate : 30.000 fps
Standard : NTSC
Color space : YUV
Chroma subsampling : 4:2:0
Bit depth : 8 bits
Scan type : Progressive
Bits/(Pixel*Frame) : 0.024
Stream size : 60.2 MiB (80%)
Source stream size : 63.7 MiB (84%)
Language : English
Encoded date : UTC 2012-09-03 15:09:46
Tagged date : UTC 2012-09-03 15:09:46
mdhd_Duration : 776232
Color primaries : BT.709
Transfer characteristics : BT.709
Matrix coefficients : BT.709

Audio
ID : 2
Format : AAC
Format/Info : Advanced Audio Codec
Format profile : LC
Codec ID : 40
Duration : 12mn 56s
Source duration : 12mn 56s
Bit rate mode : Constant
Bit rate : 126 Kbps
Channel(s) : 2 channels
Channel positions : Front: L R
Sampling rate : 44.1 KHz
Compression mode : Lossy
Stream size : 11.6 MiB (15%)
Source stream size : 11.6 MiB (15%)
Language : English
Encoded date : UTC 2012-09-03 15:09:46
Tagged date : UTC 2012-09-03 15:09:46
mdhd_Duration : 776111
Скриншоты:


Время раздачи: с 05:00 до 16:00 MSK
[NNM-Club.me]_vol.01-Particular.Base.torrent
 Торрент: Платиновая раздача  Зарегистрирован
 
Скачать


Примагнититься
 Зарегистрирован:   04 Окт 2013 16:25:29
 Размер:   574 MB  (
 Рейтинг:   4.9 (Голосов: 171)
 Поблагодарили:   566
 Проверка:   Оформление проверено модератором 06 Окт 2013 16:56:44
Как cкачать  ·  Как раздать  ·  Правильно оформить  ·  Поднять ратио!  
Bizkvit0305
Стаж: 11 лет 6 мес.
Сообщений: 16
Ratio: 3.348
1.48%
Спасибо, обязательно посмотрю. Плагин и правда мощный)
sergio1975
Стаж: 10 лет 4 мес.
Сообщений: 1592
Ratio: 6.487
100%
Откуда: Новосибирск
russia.gif
блин уж думал Грин)))
BuZzOFF_
Стаж: 8 лет 1 мес.
Сообщений: 7
Ratio: 11.924
Раздал: 63.7 GB
Поблагодарили: 2800
100%
YouTube
pim-pim
Стаж: 12 лет 1 мес.
Сообщений: 997
Ratio: 2.667
Поблагодарили: 60411
100%
russia.gif
Спасибо!

_________________
Нашёл себе - поделись с другими.
Na-tashka
Стаж: 8 лет 8 мес.
Сообщений: 9
Ratio: 9.212
100%
Очень хорошие уроки для начинающих, спасибо!!!

_________________
В общении с техникой "Я ЧАЙНИК".
TNmX
Стаж: 7 лет 10 мес.
Сообщений: 10
Ratio: 139.39
100%
За уроки спасибо!
У меня только не получилось привязать координаты Эффекта к координатам NULL-объекта - просто отсутствует вот эта самая "улитка", которой привязываются отдельные параметры.
Пользуюсь AAE CC под Windows 8 64-bit.
vvs05
Стаж: 7 лет 7 мес.
Сообщений: 1
Ratio: 3.803
28.57%
Спасибо
Cupola
Стаж: 11 лет 10 мес.
Сообщений: 130
Ratio: 3.97
18.67%
uzbekistan.gif
Жаль не показано об анимации текстовых частиц
eperst
Рационализатор Мультимедиа,
Дизайна и Графики
Стаж: 10 лет 10 мес.
Сообщений: 888
Ratio: 13.798
100%
Хорошие уроки.
Показать сообщения:   
Начать новую тему   Ответить на тему    Торрент-трекер NNM-Club -> Обучающие видеоматериалы -> Другие видеокурсы Часовой пояс: GMT + 3
Страница 1 из 1