Классический форум-трекер
canvas not supported
Нас вместе: 4 210 998

Менталист / The Mentalist (2013) WEB-DLRip (Сезон 6, серии 1-22 из 22) (BaibaKo)


Страницы:  1, 2, 3  След. 
 
RSS
Начать новую тему   Ответить на тему    Торрент-трекер NNM-Club -> Зарубежные сериалы -> Менталист / The Mentalist ; Теория Лжи / Lie To Me
Автор Сообщение
Дмитрий Валерьевич ®
Uploader 100+
Стаж: 13 лет
Сообщений: 6789
Ratio: 14K
Раздал: 276 TB
Поблагодарили: 336554
100%
Откуда: Есть такой город – Глазов
russia.gif
Менталист / The Mentalist
(Сезон 6 полный (22 серии)) (2013) WEB-DLRip (BaibaKo)

«He reads between the lies.»
Год выпуска: 2013
Страна: США
Жанр: Драма, криминал

Перевод: Профессиональный многоголосый закадровый - BaibaKo

Режиссер: Рэндалл Зиск, Крис Лонг, Саймон Бейкер, Роберт Данкан МакНил
Актеры: Саймон Бейкер, Робин Танни, Аманда Риджетти, Тим Кенг, Овайн Йомен, Эммануэль Шрики и др.

Описание:
Патрик Джейн — детектив и независимый консультант из Калифорнийского Бюро Расследований (CBI), он использует свои отточенные, как лезвие, навыки наблюдения для раскрытия тяжких преступлений. В самом Бюро Джейн известен за частые нарушения протокола, а также за его звездное прошлое: он работал медиумом, однако теперь сам признает, что симулировал паранормальные способности. Роль Джейна в раскрытии целой серии загадочных преступлений высоко ценится коллегами. Но суровая старший агент Тереза Лисбон против того, чтоб Джейн работал с ее отрядом, и то вынужденно признает его успехи, то критикует его за театральность, нарциссизм и отсутствие границ.

СЭМПЛ

Продолжительность: ~00:42:00 серия
Качество видео: WEB-DLRip
Формат: AVI
Видео: 720x400 (16:9), 23.976 fps, XviD ~1510 kbps, ~0.219 bit/pixel
Аудио Rus: 48 kHz, MPEG Layer 3, 2 ch, 192 kbps CBR
Аудио Eng: 48 kHz, MPEG Layer 3, 2 ch, 192 kbps CBR

Релиз: BaibaKo
Озвучка: Елена Григорьева, Татьяна Оболевич, Алексей Кузнецов, Виталий Ткаченко и Александр Фурман
Автор перевода: Lub_a
Общее
Mentalist.s06e01.WEB-DLRip.XviD.Rus.Eng.BaibaKo.tv.avi
Формат : AVI
Формат/Информация : Audio Video Interleave
Размер файла : 570 Мбайт
Продолжительность : 41 м.
Общий поток : 1908 Кбит/сек
Программа кодирования : VirtualDubModRus 1.5.10.2 (build 2542/release)
Библиотека кодирования : VirtualDubMod build 2542/release

Видео
Идентификатор : 0
Формат : MPEG-4 Visual
Профиль формата : Advanced Simple@L5
Параметр BVOP формата : 2
Параметр QPel формата : Нет
Параметр GMC формата : Без точки перехода
Параметр матрицы формата : Default (H.263)
Идентификатор кодека : XVID
Идентификатор кодека/Подсказка : XviD
Продолжительность : 41 м.
Битрейт : 1510 Кбит/сек
Ширина : 720 пикселей
Высота : 400 пикселей
Соотношение сторон : 16:9
Частота кадров : 23,976 кадра/сек
Цветовое пространство : YUV
Субдискретизация насыщенности : 4:2:0
Битовая глубина : 8 бит
Тип развёртки : Прогрессивная
Метод сжатия : С потерями
Бит/(Пиксели*Кадры) : 0.219
Размер потока : 451 Мбайт (79%)
Библиотека кодирования : XviD 65

Аудио #1
Идентификатор : 1
Формат : MPEG Audio
Версия формата : Version 1
Профиль формата : Layer 3
Режим : Joint stereo
Идентификатор кодека : 55
Идентификатор кодека/Подсказка : MP3
Продолжительность : 41 м.
Вид битрейта : Постоянный
Битрейт : 192 Кбит/сек
Каналы : 2 канала
Частота : 48,0 КГц
Метод сжатия : С потерями
Размер потока : 57,3 Мбайт (10%)
Выравнивание : Разделение по промежуткам
Продолжительность промежутка : 42 мс. (1,00 видеокадр)
Время предзагрузки промежутка : 500 мс.

Аудио #2
Идентификатор : 2
Формат : MPEG Audio
Версия формата : Version 1
Профиль формата : Layer 3
Режим : Joint stereo
Идентификатор кодека : 55
Идентификатор кодека/Подсказка : MP3
Продолжительность : 41 м.
Вид битрейта : Постоянный
Битрейт : 192 Кбит/сек
Каналы : 2 канала
Частота : 48,0 КГц
Метод сжатия : С потерями
Размер потока : 57,3 Мбайт (10%)
Выравнивание : Разделение по промежуткам
Продолжительность промежутка : 42 мс. (1,00 видеокадр)
Время предзагрузки промежутка : 500 мс.
01. The Desert Rose / Роза пустыни
02. Black-Winged Redbird / Чёрнокрылая красная птица
03. Wedding in Red / Свадьба в красном
04. Red-Listed / Кровавый список
05. The Red Tattoo / Красная татуировка
06. Fire and Brimstone / Огонь и сера
07. The Great Red Dragon / Великий красный дракон
08. Red John / Красный Джон
09. My Blue Heaven / Под голубыми небесами
10. Green Thumb / Зелёный палец
11. White Lines / Белые линии
12. The Golden Hammer / Золотой молоток
13. Black Helicopters / Чёрные вертолеты
14. Grey Water / Сточные воды
15. White as the Driven Snow / Белый, как первый снег
16. Violets / Фиалки
17. Silver Wings of Time / Серебряные крылья времени
18. Forest Green / Зелёный лес
19. Brown Eyed Girls / Кареглазые девушки
20. Il Tavolo Bianco / Белый стол (Таволо Бьянко)
21. Black Hearts / Чёрные сердца
22. Blue Bird / Синяя птица

Сериал «Менталист / The Mentalist» на трекере NNM-Club
Время раздачи: 24/7
 Торрент: Платиновая раздача  Зарегистрирован
 
Скачать


Примагнититься
 Зарегистрирован:   26 Май 2014 07:59:20
 Размер:   12.4 GB  (
 Рейтинг:   4.8 (Голосов: 485)
 Поблагодарили:   1693
 Проверка:   Оформление проверено модератором 26 Май 2014 08:06:07
Как cкачать  ·  Как раздать  ·  Правильно оформить  ·  Поднять ратио!  
den7805
Стаж: 9 лет 2 мес.
Сообщений: 4
Ratio: 2.31
100%
russia.gif
Спасибо большое очень ждал очень хороший сериал
badcat
Стаж: 13 лет 1 мес.
Сообщений: 43
Ratio: 33.679
Раздал: 138.8 TB
100%
russia.gif
Ура! спасибо.

_________________
Up 500mb\s Down 500mb\s
antiron
Стаж: 9 лет 6 мес.
Сообщений: 29
Ratio: 1.135
Поблагодарили: 122
96.75%
pirates.png
Спасибо за любимый сериал!!
Halzan77
Стаж: 9 лет 11 мес.
Сообщений: 60
Ratio: 2.789
Поблагодарили: 1
100%
russia.gif
:респект: :супер!:
зайкашу
Стаж: 11 лет 8 мес.
Сообщений: 18
Ratio: 22.055
100%
СПАСИБИЩЕ!!!!!
Ждала подобный перевод, сжав Фсю волю в кулак и дождалась!!!
mskdexter2
Стаж: 11 лет 7 мес.
Сообщений: 39
Ratio: 3.779
60.1%
russia.gif
Большое спс!!!
feeleen
Стаж: 13 лет
Сообщений: 9
Ratio: 3.552
60%
Красный Джон это
johnatanb
Стаж: 11 лет 3 мес.
Сообщений: 20
Ratio: 5.86
Раздал: 3.954 TB
2.76%
spain.gif
Подумал и убрал под спойлер.

_________________
telefonama2
Стаж: 11 лет 3 мес.
Сообщений: 2
Ratio: 2.421
71.43%
russia.gif
Спасибо за серию, по-моему эта новая глава как свежий глоток воздуха для сериала, лично мне понравилось :-)
FallenRaven
Стаж: 11 лет 10 мес.
Сообщений: 14
Ratio: 10.437
Поблагодарили: 48
100%
Откуда: Москва, МО Щелково
russia.gif
telefonama2 писал(а): Перейти к сообщению
Спасибо за серию, по-моему эта новая глава как свежий глоток воздуха для сериала, лично мне понравилось :-)


А мне вот нет. Этот глоток года два назад надо было сделать, а то как вели весь сериал. Как-то не к месту уже это сейчас как кажется. Это как Касла того же из более или менее детектива, перевели в одном из сезонов в типичную мыльную оперу.
viktor1159
Стаж: 13 лет 4 мес.
Сообщений: 25
Ratio: 1.724
6.25%
Откуда: урал
russia.gif
Спасибо. Будем ждать продолжения...
yurasik30692
Стаж: 10 лет 1 мес.
Сообщений: 12
Ratio: 37.294
100%
ussr.gif
Спасибо!!! :да:
Гай Риччи
Стаж: 10 лет 7 мес.
Сообщений: 163
Ratio: 22.462
100%
Откуда: Быкополь)
ukraine.gif
Спасибо!
newdisk
Стаж: 12 лет 4 мес.
Сообщений: 88
Ratio: 1.692
100%
Спасибо за сериал!

А также сайту за то, что работает! (пользуюсь Tor'ом)
Показать сообщения:   
Начать новую тему   Ответить на тему    Торрент-трекер NNM-Club -> Зарубежные сериалы -> Менталист / The Mentalist ; Теория Лжи / Lie To Me Часовой пояс: GMT + 3
Страницы:  1, 2, 3  След.
Страница 1 из 3