Классический форум-трекер
canvas not supported
Нас вместе: 4 172 093

mininome - Cosm EP (2013) [ALAC|Lossless|WEB-DL]<Deep & Melodic Techno>


 
 
RSS
Начать новую тему   Ответить на тему    Торрент-трекер NNM-Club -> Аудио и Видео -> Музыка Lossless (ALAC)
Автор Сообщение
albine ®
Стаж: 14 лет 2 мес.
Сообщений: 137
Ratio: 4.317
Поблагодарили: 1674
31.34%
iraq.gif
mininome - Cosm EP (2013)
Год: 2013
Жанр: Deep & Melodic Techno
Продолжительность: 00:20:01

Кодек: ALAC
Битрейт: Lossless|WEB-DL
Тип битрейта: VBR

Дата релиза: 2013-01-08
Лейбл: ADRO Records
Номер по каталогу: ADR058

Треклист:
01 Micro World 06:29
02 1000 light years to the home 07:39
03 1000 light years to the home (mininome DaBass Mix) 05:53
Код:

Общее
Полное имя                               : %PATH%\mininome - Cosm EP (2013)\01 mininome - Micro World.m4a
Формат                                   : MPEG-4
Профиль формата                          : Apple audio with iTunes info
Идентификатор кодека                     : M4A
Размер файла                             : 37,3 Мбайт
Продолжительность                        : 6 м. 29 с.
Режим общего битрейта                    : Переменный
Общий поток                              : 804 Кбит/сек
Альбом                                   : Cosm EP
Альбом/Исполнитель                       : mininome
Часть/Положение                          : 1
Часть/Всего                              : 1
Трек                                     : Micro World
Трек/Положение                           : 1
Трек/Всего                               : 3
Исполнитель                              : mininome
Жанр                                     : Techno
Дата записи                              : 2013
Дата кодирования                         : UTC 1998-11-13 05:27:42
Дата пометки                             : UTC 2013-10-08 08:11:47
Обложка                                  : Yes

Аудио
Идентификатор                            : 1
Формат                                   : ALAC
Идентификатор кодека                     : alac
Идентификатор кодека/Информация          : Apple Lossless Audio Codec
Продолжительность                        : 6 м. 29 с.
Duration_LastFrame                       : -31 мс.
Вид битрейта                             : Переменный
Битрейт                                  : 803 Кбит/сек
Каналы                                   : 2 канала
Частота                                  : 44,1 КГц
Битовая глубина                          : 16 бит
Размер потока                            : 37,3 Мбайт (100%)
Язык                                     : English
Дата кодирования                         : UTC 1998-11-13 05:27:42
Дата пометки                             : UTC 1998-11-13 05:27:42

Общее
Полное имя                               : %PATH%\mininome - Cosm EP (2013)\02 mininome - 1000 light years to the home (Original Mix).m4a
Формат                                   : MPEG-4
Профиль формата                          : Apple audio with iTunes info
Идентификатор кодека                     : M4A
Размер файла                             : 40,2 Мбайт
Продолжительность                        : 7 м. 39 с.
Режим общего битрейта                    : Переменный
Общий поток                              : 735 Кбит/сек
Альбом                                   : Cosm EP
Альбом/Исполнитель                       : mininome
Часть/Положение                          : 1
Часть/Всего                              : 1
Трек                                     : 1000 light years to the home (Original Mix)
Трек/Положение                           : 2
Трек/Всего                               : 3
Исполнитель                              : mininome
Жанр                                     : Techno
Дата записи                              : 2013
Дата кодирования                         : UTC 1988-10-06 19:02:38
Дата пометки                             : UTC 2013-10-08 08:11:50
Обложка                                  : Yes

Аудио
Идентификатор                            : 1
Формат                                   : ALAC
Идентификатор кодека                     : alac
Идентификатор кодека/Информация          : Apple Lossless Audio Codec
Продолжительность                        : 7 м. 39 с.
Duration_LastFrame                       : -83 мс.
Вид битрейта                             : Переменный
Битрейт                                  : 734 Кбит/сек
Каналы                                   : 2 канала
Частота                                  : 44,1 КГц
Битовая глубина                          : 16 бит
Размер потока                            : 40,2 Мбайт (100%)
Язык                                     : English
Дата кодирования                         : UTC 1988-10-06 19:02:38
Дата пометки                             : UTC 1988-10-06 19:02:38

Общее
Полное имя                               : %PATH%\mininome - Cosm EP (2013)\03 mininome - 1000 light years to the home (mininome DaBass Mix).m4a
Формат                                   : MPEG-4
Профиль формата                          : Apple audio with iTunes info
Идентификатор кодека                     : M4A
Размер файла                             : 37,7 Мбайт
Продолжительность                        : 5 м. 53 с.
Режим общего битрейта                    : Переменный
Общий поток                              : 895 Кбит/сек
Альбом                                   : Cosm EP
Альбом/Исполнитель                       : mininome
Часть/Положение                          : 1
Часть/Всего                              : 1
Трек                                     : 1000 light years to the home (mininome DaBass Mix)
Трек/Положение                           : 3
Трек/Всего                               : 3
Исполнитель                              : mininome
Жанр                                     : Techno
Дата записи                              : 2013
Дата кодирования                         : UTC 1993-07-20 10:05:02
Дата пометки                             : UTC 2013-10-08 08:11:52
Обложка                                  : Yes

Аудио
Идентификатор                            : 1
Формат                                   : ALAC
Идентификатор кодека                     : alac
Идентификатор кодека/Информация          : Apple Lossless Audio Codec
Продолжительность                        : 5 м. 53 с.
Duration_LastFrame                       : -35 мс.
Вид битрейта                             : Переменный
Битрейт                                  : 893 Кбит/сек
Каналы                                   : 2 канала
Частота                                  : 44,1 КГц
Битовая глубина                          : 16 бит
Размер потока                            : 37,6 Мбайт (100%)
Язык                                     : English
Дата кодирования                         : UTC 1993-07-20 10:05:02
Дата пометки                             : UTC 1993-07-20 10:05:02
Код:

FILE: 01 mininome - Micro World.m4a
  Size: 39152685 Hash: CBB80D85707AD83FBE593FABE4CF6AA9 Accuracy: -m0
  Conclusion: CDDA 100%
  Signature: AE265EABA77C26B5A2DFE4BDF0FAC7CA5C923FAA
FILE: 02 mininome - 1000 light years to the home (Original Mix).m4a
  Size: 42178138 Hash: A4F869469227DCA1A120444ACD45D076 Accuracy: -m0
  Conclusion: CDDA 100%
  Signature: 8A646103A962769CB1724193855118951305528F
FILE: 03 mininome - 1000 light years to the home (mininome DaBass Mix).m4a
  Size: 39505790 Hash: 3CD2876A1DA63FEFEDF15A6B053F4CDA Accuracy: -m0
  Conclusion: CDDA 100%
  Signature: 594493DA1F1485BEADACCE464AD27C42E3FB5DB9
Время раздачи: Нестабильно, но круглосуточно
[NNM-Club.me]_mininome - Cosm EP (2013).torrent
 Торрент: Платиновая раздача  Зарегистрирован
 
Скачать


Примагнититься
 Зарегистрирован:   10 Окт 2013 11:21:48
 Размер:   115 MB  (
 Рейтинг:   4.5 (Голосов: 10)
 Поблагодарили:   21
 Проверка:   Оформление проверено модератором 11 Окт 2013 00:00:23
Как cкачать  ·  Как раздать  ·  Правильно оформить  ·  Поднять ратио!  
Показать сообщения:   
Начать новую тему   Ответить на тему    Торрент-трекер NNM-Club -> Аудио и Видео -> Музыка Lossless (ALAC) Часовой пояс: GMT + 3
Страница 1 из 1