Классический форум-трекер
canvas not supported
Нас вместе: 4 210 939

Темный рыцарь / The Dark Knight (2008) BDRip [1080p]


 
 
RSS
Начать новую тему   Ответить на тему    Торрент-трекер NNM-Club -> Зарубежное кино -> Зарубежные Фильмы (HD, FHD)
Автор Сообщение
Long__Boy ®
Стаж: 10 лет 1 мес.
Сообщений: 838
Ratio: 91.4
Поблагодарили: 137137
100%
Темный рыцарь / The Dark Knight (2008) BDRip [1080p]

Год выпуска: 2008
Производство: США / Warner Bros., Legendary Pictures, Syncopy
Жанр: фантастика, боевик, триллер, криминал
Перевод: Профессиональный (Полное Дублирование) / Профессиональный (Многоголосый) /Профессиональный (Одноголосый) / Оригинал (Английский)
Субтитры: Русские [Full]; Английские [Full].
Дата мировой премьеры: 14 июля 2008
Дата российской премьеры: 14 августа 2008, «Каро-Премьер»
Дата выхода DVD: 9 декабря 2008, «Юниверсал Пикчерс Рус»
Дата выхода Blu-Ray: 27 января 2009, «Юниверсал Пикчерс Рус»
Режиссер: Кристофер Нолан
Актеры: Кристиан Бэйл, Хит Леджер, Аарон Экхарт, Мэгги Джилленхол, Гари Олдман, Майкл Кейн, Морган Фриман, Чин Хань, Нестор Карбонелл, Эрик Робертс
Описание фильма: Бэтмен поднимает ставки в войне с криминалом. С помощью лейтенанта Джима Гордона и прокурора Харви Дента он намерен очистить улицы от преступности, отравляющей город. Сотрудничество оказывается эффективным, но скоро они обнаружат себя посреди хаоса, развязанного восходящим криминальным гением, известным испуганным горожанам под именем Джокер.

Продолжительность: 02:32:13
Качество видео: BDRip [1080p]
Видеокодек: MPEG-4 AVC/H.264
Битрейт видео: ~16.0 Mbps
Размер кадра: 1920x1080
Аудио#1: [Русский]: AC3 5.1; 448.00 kbps; 48 kHz; 16-bit |Дубляж|
Аудио#2: [Русский]: AC3 5.1; 448.00 kbps; 48 kHz; 16-bit |Кравец|
Аудио#3: [Русский]: AC3 5.1; 448.00 kbps; 48 kHz; 16-bit |Сербин|
Аудио#4: [Русский]: DTS 5.1; 1509.00 kbps; 48 kHz; 24-bit |Гаврилов|
Аудио#5: [Русский]: АС3 5.1; 384.00 kbps; 48 kHz; 16-bit |Чадов|
Аудио#6: [Русский]: АС3 5.1; 448.00 kbps; 48 kHz; 16-bit |Гоблин|
Аудио#7: [Украинский]: АС3 5.1; 448.00 kbps; 48 kHz; 16-bit |Дубляж|
Аудио#8: [Английский]: DTS 5.1; 1510.00 kbps; 48 kHz; 16-bit |Оригинал|
Дополнительно: Сохранены подписанные оригинальные главы как на Blu-Ray.
Код: выделить все
General
Unique ID                                : 189849913253029422314841582855373098513 (0x8ED3C366CC740B64B2564232F8FA8E11)
Complete name                            : D:\The.Dark.Knight.2008.1080p.BDRip.mkv
Format                                   : Matroska
Format version                           : Version 2
File size                                : 23.8 GiB
Duration                                 : 2h 34mn
Overall bit rate                         : 22.1 Mbps
Encoded date                             : UTC 2013-10-18 09:40:25
Writing application                      : mkvmerge v5.8.0 ('No Sleep / Pillow') built on Sep  2 2012 15:37:04
Writing library                          : libebml v1.2.3 + libmatroska v1.3.0
Attachment                               : Yes

Video
ID                                       : 1
Format                                   : AVC
Format/Info                              : Advanced Video Codec
Format profile                           : High@L4.1
Format settings, CABAC                   : Yes
Format settings, ReFrames                : 4 frames
Muxing mode                              : Header stripping
Codec ID                                 : V_MPEG4/ISO/AVC
Duration                                 : 2h 34mn
Bit rate                                 : 16.0 Mbps
Width                                    : 1 920 pixels
Height                                   : 1 080 pixels
Display aspect ratio                     : 16:9
Frame rate mode                          : Constant
Frame rate                               : 23.976 fps
Color space                              : YUV
Chroma subsampling                       : 4:2:0
Bit depth                                : 8 bits
Scan type                                : Progressive
Bits/(Pixel*Frame)                       : 0.322
Stream size                              : 17.3 GiB (72%)
Writing library                          : x264 core 138 r2359+704+48 3f879a0 tMod [8-bit@4:2:0 X86_64]
Encoding settings                        : cabac=1 / ref=4 / deblock=1:-2:-2 / analyse=0x3:0x113 / me=umh / subme=11 / psy=1 / fade_compensate=0.00 / psy_rd=1.00:0.00 / mixed_ref=1 / me_range=48 / chroma_me=1 / trellis=2 / 8x8dct=1 / cqm=0 / deadzone=21,11 / fast_pskip=1 / chroma_qp_offset=-2 / threads=12 / lookahead_threads=2 / sliced_threads=0 / nr=0 / decimate=1 / interlaced=0 / bluray_compat=0 / constrained_intra=0 / fgo=0 / bframes=8 / b_pyramid=2 / b_adapt=2 / b_bias=0 / direct=3 / weightb=1 / open_gop=0 / weightp=2 / keyint=250 / keyint_min=23 / scenecut=40 / intra_refresh=0 / rc_lookahead=60 / rc=crf / mbtree=0 / crf=18.0000 / qcomp=0.60 / qpmin=0:0:0 / qpmax=69:69:69 / qpstep=4 / vbv_maxrate=62500 / vbv_bufsize=78125 / crf_max=0.0 / nal_hrd=none / ip_ratio=1.40 / pb_ratio=1.30 / aq=4:0.80 / aq-sensitivity=11.00 / aq-factor=1.00:1.00:1.00 / aq2=1:0.60 / aq2-sensitivity=9.00 / aq2-factor=1.00:1.00:1.00 / aq3=1:[0.60:0.60]:[0.60:0.60]:[0.60:0.60]:[0.60:0.60] / aq3-sensitivity=10.00 / aq3-factor=[1.00:1.00]:[1.00:1.00]:[1.00:1.00] / aq3-boundary=192:64:24
Language                                 : English
Default                                  : Yes
Forced                                   : No
Color primaries                          : BT.709
Transfer characteristics                 : BT.709
Matrix coefficients                      : BT.709

Audio #1
ID                                       : 2
Format                                   : AC-3
Format/Info                              : Audio Coding 3
Mode extension                           : CM (complete main)
Format settings, Endianness              : Big
Muxing mode                              : Header stripping
Codec ID                                 : A_AC3
Duration                                 : 2h 34mn
Bit rate mode                            : Constant
Bit rate                                 : 448 Kbps
Channel count                            : 6 channels
Channel positions                        : Front: L C R, Side: L R, LFE
Sampling rate                            : 48.0 KHz
Bit depth                                : 16 bits
Compression mode                         : Lossy
Stream size                              : 495 MiB (2%)
Title                                    : Дубляж
Language                                 : Russian
Default                                  : Yes
Forced                                   : No

Audio #2
ID                                       : 3
Format                                   : AC-3
Format/Info                              : Audio Coding 3
Mode extension                           : CM (complete main)
Format settings, Endianness              : Big
Muxing mode                              : Header stripping
Codec ID                                 : A_AC3
Duration                                 : 2h 34mn
Bit rate mode                            : Constant
Bit rate                                 : 448 Kbps
Channel count                            : 6 channels
Channel positions                        : Front: L C R, Side: L R, LFE
Sampling rate                            : 48.0 KHz
Bit depth                                : 16 bits
Compression mode                         : Lossy
Stream size                              : 495 MiB (2%)
Title                                    : Кравец
Language                                 : Russian
Default                                  : No
Forced                                   : No

Audio #3
ID                                       : 4
Format                                   : AC-3
Format/Info                              : Audio Coding 3
Mode extension                           : CM (complete main)
Format settings, Endianness              : Big
Muxing mode                              : Header stripping
Codec ID                                 : A_AC3
Duration                                 : 2h 34mn
Bit rate mode                            : Constant
Bit rate                                 : 448 Kbps
Channel count                            : 6 channels
Channel positions                        : Front: L C R, Side: L R, LFE
Sampling rate                            : 48.0 KHz
Bit depth                                : 16 bits
Compression mode                         : Lossy
Stream size                              : 495 MiB (2%)
Title                                    : Сербин
Language                                 : Russian
Default                                  : No
Forced                                   : No

Audio #4
ID                                       : 5
Format                                   : DTS
Format/Info                              : Digital Theater Systems
Mode                                     : 16
Format settings, Endianness              : Big
Muxing mode                              : Header stripping
Codec ID                                 : A_DTS
Duration                                 : 2h 34mn
Bit rate mode                            : Constant
Bit rate                                 : 1 510 Kbps
Channel count                            : 6 channels
Channel positions                        : Front: L C R, Side: L R, LFE
Sampling rate                            : 48.0 KHz
Bit depth                                : 24 bits
Compression mode                         : Lossy
Stream size                              : 1.63 GiB (7%)
Title                                    : Гаврилов
Language                                 : Russian
Default                                  : No
Forced                                   : No

Audio #5
ID                                       : 6
Format                                   : AC-3
Format/Info                              : Audio Coding 3
Mode extension                           : CM (complete main)
Format settings, Endianness              : Big
Muxing mode                              : Header stripping
Codec ID                                 : A_AC3
Duration                                 : 2h 34mn
Bit rate mode                            : Constant
Bit rate                                 : 384 Kbps
Channel count                            : 6 channels
Channel positions                        : Front: L C R, Side: L R, LFE
Sampling rate                            : 48.0 KHz
Bit depth                                : 16 bits
Compression mode                         : Lossy
Stream size                              : 424 MiB (2%)
Title                                    : Чадов
Language                                 : Russian
Default                                  : No
Forced                                   : No

Audio #6
ID                                       : 7
Format                                   : AC-3
Format/Info                              : Audio Coding 3
Mode extension                           : CM (complete main)
Format settings, Endianness              : Big
Muxing mode                              : Header stripping
Codec ID                                 : A_AC3
Duration                                 : 2h 34mn
Bit rate mode                            : Constant
Bit rate                                 : 448 Kbps
Channel count                            : 6 channels
Channel positions                        : Front: L C R, Side: L R, LFE
Sampling rate                            : 48.0 KHz
Bit depth                                : 16 bits
Compression mode                         : Lossy
Stream size                              : 495 MiB (2%)
Title                                    : Гоблин
Language                                 : Russian
Default                                  : No
Forced                                   : No

Audio #7
ID                                       : 8
Format                                   : AC-3
Format/Info                              : Audio Coding 3
Mode extension                           : CM (complete main)
Format settings, Endianness              : Big
Muxing mode                              : Header stripping
Codec ID                                 : A_AC3
Duration                                 : 2h 34mn
Bit rate mode                            : Constant
Bit rate                                 : 448 Kbps
Channel count                            : 6 channels
Channel positions                        : Front: L C R, Side: L R, LFE
Sampling rate                            : 48.0 KHz
Bit depth                                : 16 bits
Compression mode                         : Lossy
Stream size                              : 495 MiB (2%)
Title                                    : Дубляж
Language                                 : Ukrainian
Default                                  : No
Forced                                   : No

Audio #8
ID                                       : 9
Format                                   : DTS
Format/Info                              : Digital Theater Systems
Mode                                     : 16
Format settings, Endianness              : Big
Muxing mode                              : Header stripping
Codec ID                                 : A_DTS
Duration                                 : 2h 34mn
Bit rate mode                            : Constant
Bit rate                                 : 1 509 Kbps
Channel count                            : 6 channels
Channel positions                        : Front: L C R, Side: L R, LFE
Sampling rate                            : 48.0 KHz
Bit depth                                : 16 bits
Compression mode                         : Lossy
Stream size                              : 1.63 GiB (7%)
Title                                    : Оригинал
Language                                 : English
Default                                  : No
Forced                                   : No

Text #1
ID                                       : 10
Format                                   : UTF-8
Codec ID                                 : S_TEXT/UTF8
Codec ID/Info                            : UTF-8 Plain Text
Title                                    : Full
Language                                 : Russian
Default                                  : No
Forced                                   : No

Text #2
ID                                       : 11
Format                                   : UTF-8
Codec ID                                 : S_TEXT/UTF8
Codec ID/Info                            : UTF-8 Plain Text
Title                                    : Full
Language                                 : English
Default                                  : No
Forced                                   : No

Menu
00:00:00.000                             : en:Robbery Gone Stranger
00:06:23.966                             : en:Intimidate Mode
00:10:36.260                             : en:Unknown Limits
00:13:52.581                             : en:Last Game in Town
00:17:54.198                             : en:Protector's Mantle
00:21:39.339                             : en:Kill the Batman
00:26:10.026                             : en:Hong Kong Holiday
00:29:36.274                             : en:Why so Serious?
00:31:42.483                             : en:Landing Lau
00:37:49.058                             : en:Men of their Word
00:43:34.069                             : en:Hero with a Face
00:46:39.546                             : en:Somebody with Access
00:48:57.768                             : en:Tonight's Entertainment
00:53:19.446                             : en:Watch the World Burn
00:57:15.640                             : en:Your Plan is Blackmail?
00:59:26.354                             : en:Dishonour Guard
01:03:59.627                             : en:No Rules
01:08:23.557                             : en:Right Choice
01:10:48.327                             : en:I am the Batman
01:14:24.918                             : en:Trip to Country
01:18:05.639                             : en:Bat-pod Faceoff
01:22:22.437                             : en:We Got Him
01:24:48.583                             : en:Good Cop, Bad Cop
01:30:48.442                             : en:Two-way Race
01:34:04.972                             : en:Burned Down
01:39:57.783                             : en:Harvey Two-Face
01:42:05.494                             : en:Better Class of Criminal
01:44:59.918                             : en:Watch Out
01:47:00.872                             : en:Agent of Chaos
01:51:09.913                             : en:Hospital Boom
01:54:14.639                             : en:Too Much Power
01:57:04.017                             : en:Unlucky
02:00:14.248                             : en:Ferry Scary
02:03:37.576                             : en:Prewitt Building Siege
02:09:07.614                             : en:Verge of Fireworks
02:12:27.314                             : en:Battle for Gotham's Soul
02:15:22.781                             : en:One Pointing the Gun
02:19:58.681                             : en:Dark Knight
02:24:26.658                             : en:End Credits
Скриншоты:


Время раздачи: 24/7 до 3х скачавших, дальше по мере возможности...
Постер и оформление Long__Boy®


 Торрент: Платиновая раздача  Зарегистрирован
 
Скачать


Примагнититься
 Зарегистрирован:   18 Окт 2013 13:17:37
 Размер:   23.8 GB  (
 Рейтинг:   4.9 (Голосов: 145)
 Поблагодарили:   384
 Проверка:   Оформление проверено модератором 21 Окт 2013 09:46:32
Как cкачать  ·  Как раздать  ·  Правильно оформить  ·  Поднять ратио!  

_________________
Блюз - это состояние души, для которого не нужно дорогой гитары - подойдет та, что есть под рукой...
slaventiy973
Стаж: 11 лет 5 мес.
Сообщений: 76
Ratio: 2.874
100%
pirates.png
С Кристиан Бэйлом вообще можно все его фильмы смотреть,-прекрасный актер!!!
Rus_Rasmus
Стаж: 9 лет 11 мес.
Сообщений: 598
Ratio: 0.842
100%
russia.gif
"Перевод: Профессиональный (Полное Дублирование)" - вот за это стоит скачать!
isb071
Стаж: 8 лет 4 мес.
Сообщений: 46
Ratio: 2.322
8.04%
slaventiy973 писал(а): Перейти к сообщению
С Кристиан Бэйлом вообще можно все его фильмы смотреть,-прекрасный актер!!!

Какой на* Бейл? - пустышка - п*зд*к рядом Леджером - чувак тут просто всех у*бенил к чертовой матери и забрал оскар. А что Бейл - бицуху накачал или что в анорексичку превратился в машинисте - у него есть американский психопат и эквилибриум с напыщенными рожами - но это все просто херимери по сравнению с джокером.
Показать сообщения:   
Начать новую тему   Ответить на тему    Торрент-трекер NNM-Club -> Зарубежное кино -> Зарубежные Фильмы (HD, FHD) Часовой пояс: GMT + 3
Страница 1 из 1