Классический форум-трекер
canvas not supported
Нас вместе: 4 232 301

Гадкий я 2 / Despicable Me 2 (2013) HDRip [H.264]


 
 
RSS
Начать новую тему   Ответить на тему    Торрент-трекер NNM-Club -> Архив торрентов -> Архив Мультфильмов
Автор Сообщение
art-61 ®
Стаж: 12 лет 10 мес.
Сообщений: 1094
Ratio: 119.581
Поблагодарили: 143433
100%
Откуда: Санкт-Петербург
russia.gif
Гадкий я 2 / Despicable Me 2 (2013) HDRip
Год выпуска: 2013
Производство: США | Universal Pictures, Illumination Entertainment
Жанр: Мультфильм, Комедия, Семейный, Криминальный

Перевод: Дублированный [Лицензия]
Субтитры: Вшитые отключаемые
Язык субтитров: Русский, Английский (Full, SDH, SDH-Colored)

Дата мировой премьеры: 20 июня 2013 (Франция)
Дата российской премьеры: 15 августа 2013, «UPI»
Дата выхода DVD релиза: 31 октября 2013, «Двадцатый Век Фокс СНГ»
Дата выхода Blu-Ray релиза: 31 октября 2013, «Двадцатый Век Фокс СНГ»

Режиссер: Пьер Соффин, Крис Рено
Продюсер: Джанет Хили, Кристофер Меледандри
Актеры: Стив Карелл, Кен Жонг, Кристен Уиг, Миранда Косгров, Мойзес Ариас, Бенджамин Брэтт, Стив Кугэн, Расселл Брэнд, Элси Фишер, Дэна Гайер

Описание фильма:
В то время как Грю, бывший суперзлодей, приспосабливается к семейной жизни и пытается честным трудом зарабатывать в сфере бизнеса, тайные лаборатории Арктики оказываются украденными. Анти-Злодейская лига решает, что она нуждается в помощи Грю и его новобранцев в расследовании.



Продолжительность: 01:37:58
Качество видео: HDRip

Видеокодек: MPEG-4 AVC/H.264
Битрейт видео: 2510 Кбит/с
Размер кадра: 1024x554
Аудио #1: Русский, (АС3, 6 ch, 448 Кбит/с) - Дублированный
Аудио #2: Английский, (АС3, 6 ch, 448 Кбит/с) - Оригинал
Дополнительно: Сохранены оригинальные чаптеры как на Blu-Ray
Все голоса миньонов в оригинальной озвучке принадлежат режиссерам картины — Пьеру Соффину и Крису Рено.
Вместо Леонида Ярмольника, который озвучивал Грю в первой части мультфильма, голос в русском дубляже достался Сергею Бурунову.
В моменте битвы Грю с курицей в ресторане Эль Мачо есть отсылка к фильму «Чужой», когда курица вырывается через свитер Грю через грудь.
Финальная песня миньонов в российском прокате содержит слово «труселя», а в украинском — «у трусах».
Общее
Уникальный идентификатор : 183271185325747777277750074603762705054 (0x89E0BF12830F80D5820FB3DB2E25629E)
Полное имя : C:\Загрузки\Gadkij.ja-2.2013.x264.HDRip.(AVC).mkv
Формат : Matroska
Версия формата : Version 2
Размер файла : 2,33 Гбайт
Продолжительность : 1 ч. 37 м.
Общий поток : 3401 Кбит/сек
Название фильма : Гадкий я 2. 2013
Дата кодирования : UTC 2013-10-19 12:35:14
Программа кодирования : mkvmerge v5.6.0 ('Kenya Kane') built on May 27 2012 16:44:04
Библиотека кодирования : libebml v1.2.3 + libmatroska v1.3.0

Видео
Идентификатор : 1
Формат : AVC
Формат/Информация : Advanced Video Codec
Профиль формата : High@L4.1
Параметр CABAC формата : Да
Параметр ReFrames формата : 9 кадров
Идентификатор кодека : V_MPEG4/ISO/AVC
Продолжительность : 1 ч. 37 м.
Битрейт : 2510 Кбит/сек
Ширина : 1024 пикселя
Высота : 554 пикселя
Соотношение сторон : 1,85:1
Режим частоты кадров : Постоянный
Частота кадров : 23,976 кадра/сек
Цветовое пространство : YUV
Субдискретизация насыщенности : 4:2:0
Битовая глубина : 8 бит
Тип развёртки : Прогрессивная
Бит/(Пиксели*Кадры) : 0.185
Размер потока : 1,67 Гбайт (72%)
Библиотека кодирования : x264 core 125 r2200 999b753
Настройки программы : cabac=1 / ref=9 / deblock=1:-2:-2 / analyse=0x3:0x133 / me=umh / subme=11 / psy=1 / psy_rd=1.00:0.10 / mixed_ref=1 / me_range=32 / chroma_me=1 / trellis=2 / 8x8dct=1 / cqm=0 / deadzone=21,11 / fast_pskip=0 / chroma_qp_offset=-3 / threads=12 / lookahead_threads=2 / sliced_threads=0 / nr=0 / decimate=0 / interlaced=0 / bluray_compat=0 / constrained_intra=0 / bframes=11 / b_pyramid=2 / b_adapt=2 / b_bias=0 / direct=3 / weightb=1 / open_gop=0 / weightp=2 / keyint=240 / keyint_min=23 / scenecut=40 / intra_refresh=0 / rc_lookahead=40 / rc=2pass / mbtree=0 / bitrate=2510 / ratetol=1.0 / qcomp=0.60 / qpmin=0 / qpmax=69 / qpstep=4 / cplxblur=20.0 / qblur=0.5 / vbv_maxrate=3500 / vbv_bufsize=62500 / nal_hrd=none / ip_ratio=1.40 / pb_ratio=1.30 / aq=1:1.00
Default : Да
Forced : Нет

Аудио #1
Идентификатор : 2
Формат : AC-3
Формат/Информация : Audio Coding 3
Расширение режима : CM (complete main)
Параметр Endianness формата : Big
Идентификатор кодека : A_AC3
Продолжительность : 1 ч. 37 м.
Вид битрейта : Постоянный
Битрейт : 448 Кбит/сек
Каналы : 6 каналов
Расположение каналов : Front: L C R, Side: L R, LFE
Частота : 48,0 КГц
Битовая глубина : 16 бит
Метод сжатия : С потерями
Размер потока : 314 Мбайт (13%)
Заголовок : Дублированый (Лицензия)
Язык : Russian
Default : Да
Forced : Да

Аудио #2
Идентификатор : 3
Формат : AC-3
Формат/Информация : Audio Coding 3
Расширение режима : CM (complete main)
Параметр Endianness формата : Big
Идентификатор кодека : A_AC3
Продолжительность : 1 ч. 37 м.
Вид битрейта : Постоянный
Битрейт : 448 Кбит/сек
Каналы : 6 каналов
Расположение каналов : Front: L C R, Side: L R, LFE
Частота : 48,0 КГц
Битовая глубина : 16 бит
Метод сжатия : С потерями
Размер потока : 314 Мбайт (13%)
Язык : English
Default : Нет
Forced : Нет

Текст #1
Идентификатор : 4
Формат : UTF-8
Идентификатор кодека : S_TEXT/UTF8
Идентификатор кодека/Информация : UTF-8 Plain Text
Заголовок : Forced
Язык : Russian
Default : Да
Forced : Нет

Текст #2
Идентификатор : 5
Формат : UTF-8
Идентификатор кодека : S_TEXT/UTF8
Идентификатор кодека/Информация : UTF-8 Plain Text
Язык : Russian
Default : Нет
Forced : Нет

Текст #3
Идентификатор : 6
Формат : UTF-8
Идентификатор кодека : S_TEXT/UTF8
Идентификатор кодека/Информация : UTF-8 Plain Text
Язык : English
Default : Нет
Forced : Нет

Меню
00:00:00.000 : en:Chapter 1
00:03:22.994 : en:Chapter 2
00:08:04.734 : en:Chapter 3
00:15:50.867 : en:Chapter 4
00:18:28.232 : en:Chapter 5
00:24:36.892 : en:Chapter 6
00:30:50.724 : en:Chapter 7
00:34:40.704 : en:Chapter 8
00:40:48.279 : en:Chapter 9
00:46:26.200 : en:Chapter 10
00:51:23.122 : en:Chapter 11
00:56:27.426 : en:Chapter 12
01:00:00.472 : en:Chapter 13
01:03:27.053 : en:Chapter 14
01:08:44.078 : en:Chapter 15
01:14:01.979 : en:Chapter 16
01:18:08.058 : en:Chapter 17
01:22:33.907 : en:Chapter 18
01:27:09.099 : en:Chapter 19
01:30:33.720 : en:Chapter 20
Скриншоты:


Все релизы Гадкий я 2 на NNM-CLUB
Время раздачи: 24/7 по возможности
[NNM-Club.me]_Gadkij.ja-2.2013.x264.HDRip.(AVC).mkv.torrent
 Торрент: Платиновая раздача  Зарегистрирован
 
Скачать


Примагнититься
 Зарегистрирован:   19 Окт 2013 17:23:29
 Размер:   2.33 GB  (
 Рейтинг:   4.7 (Голосов: 63)
 Поблагодарили:   229
 Проверка:   Оформление проверено модератором 19 Окт 2013 22:44:34
Как cкачать  ·  Как раздать  ·  Правильно оформить  ·  Поднять ратио!  
Savec71
Стаж: 13 лет 3 мес.
Сообщений: 48
Ratio: 2.732
100%
Откуда: Тула
russia.gif
со звуком косяк
MostWanted3
Стаж: 14 лет 11 мес.
Сообщений: 18
Ratio: 293.439
Поблагодарили: 248
1.85%
В какой раздаче нормальный звук?
leon91
Стаж: 14 лет 4 мес.
Сообщений: 40
Ratio: 1.153
Поблагодарили: 282
60.19%
Откуда: Taranto
italy.gif
Звук ужасный (((( Голосов почти не слышно.
art-61 ®
Стаж: 12 лет 10 мес.
Сообщений: 1094
Ratio: 119.581
Поблагодарили: 143433
100%
Откуда: Санкт-Петербург
russia.gif
Гадкий я 2 / Despicable Me 2 (2013) HDRip [H.264]
В раздаче, исправлен звук!

_________________
В этом безумном мире возможно всё!
Топик был перенесен из форума Зарубежные Мультфильмы (HD*Rip/LQ, DVDRip, SATRip, VHSRip) в форум Архив Мультфильмов

Причина переноса: Замена на http://nnmclub.to/forum/viewtopic.php?t=713070
starklad
Alexander80V
Стаж: 17 лет
Сообщений: 328
Ratio: 55.149
Раздал: 40.25 TB
Поблагодарили: 362
100%
ussr.gif
Думал на кого ж похож професор, а на Геращенко пред Центр банка РФ
Marakasick
Стаж: 12 лет 9 мес.
Сообщений: 8
Ratio: 0.801
20%
ЧЁ ЗА ЗВУК
MediaFire​CjDMaN201​0​
Стаж: 10 лет 2 мес.
Сообщений: 4
Ratio: 7.64
100%
Откуда: Thessaloniki
greece.gif
:задумался:
Показать сообщения:   
Начать новую тему   Ответить на тему    Торрент-трекер NNM-Club -> Архив торрентов -> Архив Мультфильмов Часовой пояс: GMT + 3
Страница 1 из 1