Классический форум-трекер
canvas not supported
Нас вместе: 4 232 309

Гадкий я 2 / Despicable Me 2 (2013) BDRip [H.264/720p-LQ]


 
 
RSS
Начать новую тему   Ответить на тему    Торрент-трекер NNM-Club -> Мультфильмы -> Зарубежные Мультфильмы 21-го века (HD, FHD, UHD)
Автор Сообщение
art-61 ®
Стаж: 12 лет 10 мес.
Сообщений: 1094
Ratio: 119.581
Поблагодарили: 143433
100%
Откуда: Санкт-Петербург
russia.gif
Гадкий я 2 / Despicable Me 2 (2013) BDRip
Год выпуска: 2013
Производство: США | Universal Pictures, Illumination Entertainment
Жанр: Мультфильм, Комедия, Семейный, Криминальный

Перевод: Дублированный [Лицензия]
Субтитры: Вшитые отключаемые
Язык субтитров: Русский, Английский (Full, SDH, SDH-Colored)

Дата мировой премьеры: 20 июня 2013 (Франция)
Дата российской премьеры: 15 августа 2013, «UPI»
Дата выхода DVD релиза: 31 октября 2013, «Двадцатый Век Фокс СНГ»
Дата выхода Blu-Ray релиза: 31 октября 2013, «Двадцатый Век Фокс СНГ»

Режиссер: Пьер Соффин, Крис Рено
Продюсер: Джанет Хили, Кристофер Меледандри
Актеры: Стив Карелл, Кен Жонг, Кристен Уиг, Миранда Косгров, Мойзес Ариас, Бенджамин Брэтт, Стив Кугэн, Расселл Брэнд, Элси Фишер, Дэна Гайер

Описание фильма:
В то время как Грю, бывший суперзлодей, приспосабливается к семейной жизни и пытается честным трудом зарабатывать в сфере бизнеса, тайные лаборатории Арктики оказываются украденными. Анти-Злодейская лига решает, что она нуждается в помощи Грю и его новобранцев в расследовании.



Продолжительность: 01:37:58
Качество видео: BDRip

Видеокодек: MPEG-4 AVC/H.264
Битрейт видео: ~3960 Кбит/с
Размер кадра: 1280x690
Аудиокодек: AC3 5.1
Битрейт аудио: 448 Кбит/с
Дополнительно: Сохранены оригинальные чаптеры как на Blu-Ray
Все голоса миньонов в оригинальной озвучке принадлежат режиссерам картины — Пьеру Соффину и Крису Рено.
Вместо Леонида Ярмольника, который озвучивал Грю в первой части мультфильма, голос в русском дубляже достался Сергею Бурунову.
В моменте битвы Грю с курицей в ресторане Эль Мачо есть отсылка к фильму «Чужой», когда курица вырывается через свитер Грю через грудь.
Финальная песня миньонов в российском прокате содержит слово «труселя», а в украинском — «у трусах».
Общее
Уникальный идентификатор : 179859633610009342703641965994673278179 (0x874FB4961DF2A703CF5056CD8CBD8CE3)
Полное имя : D:\Despicable Me 2.2013.720p.x264.mkv
Формат : Matroska
Версия формата : Version 2
Размер файла : 3,08 Гбайт
Продолжительность : 1 ч. 37 м.
Общий поток : 4498 Кбит/сек
Название фильма
Дата кодирования : UTC 2013-10-21 06:53:03
Программа кодирования : mkvmerge v5.0.1 ('Es ist Sommer') built on Oct 23 2011 00:46:40
Библиотека кодирования : libebml v1.2.2 + libmatroska v1.3.0

Видео
Идентификатор : 1
Формат : AVC
Формат/Информация : Advanced Video Codec
Профиль формата : High@L4.1
Параметр CABAC формата : Да
Параметр ReFrames формата : 8 кадров
Идентификатор кодека : V_MPEG4/ISO/AVC
Продолжительность : 1 ч. 37 м.
Битрейт : 3960 Кбит/сек
Ширина : 1280 пикселей
Высота : 690 пикселей
Соотношение сторон : 1,85:1
Режим частоты кадров : Постоянный
Частота кадров : 23,976 кадра/сек
Цветовое пространство : YUV
Субдискретизация насыщенности : 4:2:0
Битовая глубина : 8 бит
Тип развёртки : Прогрессивная
Бит/(Пиксели*Кадры) : 0.187
Размер потока : 2,71 Гбайт (88%)
Библиотека кодирования : x264 core 125 r2208 d9d2288
Настройки программы : cabac=1 / ref=8 / deblock=1:-3:-3 / analyse=0x3:0x133 / me=umh / subme=11 / psy=1 / psy_rd=1.00:0.05 / mixed_ref=1 / me_range=32 / chroma_me=1 / trellis=2 / 8x8dct=1 / cqm=0 / deadzone=21,11 / fast_pskip=0 / chroma_qp_offset=-3 / threads=12 / lookahead_threads=2 / sliced_threads=0 / nr=0 / decimate=1 / interlaced=0 / bluray_compat=0 / constrained_intra=0 / bframes=6 / b_pyramid=2 / b_adapt=2 / b_bias=0 / direct=1 / weightb=1 / open_gop=0 / weightp=2 / keyint=250 / keyint_min=23 / scenecut=40 / intra_refresh=0 / rc=crf / mbtree=0 / crf=17.5 / qcomp=0.60 / qpmin=0 / qpmax=69 / qpstep=4 / ip_ratio=1.40 / pb_ratio=1.30 / aq=2:1.00
Язык : English
Default : Да
Forced : Нет

Аудио
Идентификатор : 2
Формат : AC-3
Формат/Информация : Audio Coding 3
Расширение режима : CM (complete main)
Параметр Endianness формата : Big
Идентификатор кодека : A_AC3
Продолжительность : 1 ч. 37 м.
Вид битрейта : Постоянный
Битрейт : 448 Кбит/сек
Каналы : 6 каналов
Расположение каналов : Front: L C R, Side: L R, LFE
Частота : 48,0 КГц
Битовая глубина : 16 бит
Метод сжатия : С потерями
Размер потока : 314 Мбайт (10%)
Заголовок : Dub
Язык : Russian
Default : Да
Forced : Да

Текст #1
Идентификатор : 3
Формат : UTF-8
Идентификатор кодека : S_TEXT/UTF8
Идентификатор кодека/Информация : UTF-8 Plain Text
Заголовок : Full
Язык : Russian
Default : Нет
Forced : Нет

Текст #2
Идентификатор : 4
Формат : UTF-8
Идентификатор кодека : S_TEXT/UTF8
Идентификатор кодека/Информация : UTF-8 Plain Text
Язык : Russian
Default : Да
Forced : Нет

Текст #3
Идентификатор : 5
Формат : UTF-8
Идентификатор кодека : S_TEXT/UTF8
Идентификатор кодека/Информация : UTF-8 Plain Text
Заголовок : Full
Язык : English
Default : Нет
Forced : Нет

Текст #4
Идентификатор : 6
Формат : UTF-8
Идентификатор кодека : S_TEXT/UTF8
Идентификатор кодека/Информация : UTF-8 Plain Text
Язык : English
Default : Нет
Forced : Нет

Меню
00:00:00.000 : en:(01)00:00:00:000
00:03:22.994 : en:(02)00:03:22:994
00:08:04.734 : en:(03)00:08:04:734
00:15:50.866 : en:(04)00:15:50:866
00:18:28.232 : en:(05)00:18:28:232
00:24:36.892 : en:(06)00:24:36:892
00:30:50.723 : en:(07)00:30:50:723
00:34:40.703 : en:(08)00:34:40:703
00:40:48.279 : en:(09)00:40:48:279
00:46:26.200 : en:(10)00:46:26:200
00:51:23.121 : en:(11)00:51:23:121
00:56:27.425 : en:(12)00:56:27:425
01:00:00.471 : en:(13)01:00:00:471
01:03:27.053 : en:(14)01:03:27:053
01:08:44.078 : en:(15)01:08:44:078
01:14:01.979 : en:(16)01:14:01:979
01:18:08.058 : en:(17)01:18:08:058
01:22:33.907 : en:(18)01:22:33:907
01:27:09.098 : en:(19)01:27:09:098
01:30:33.719 : en:(20)01:30:33:719
01:37:58.497 : en:(21)01:37:58:497
Скриншоты:


Все релизы Гадкий я 2 на NNM-CLUB
Время раздачи: 24/7 по возможности
[NNM-Club.me]_Despicable Me 2.2013.720p.x264.mkv.torrent
 Торрент: Платиновая раздача  Зарегистрирован
 
Скачать


Примагнититься
 Зарегистрирован:   21 Окт 2013 14:22:42
 Размер:   3.08 GB  (
 Рейтинг:   4.9 (Голосов: 273)
 Поблагодарили:   1191
 Проверка:   Оформление проверено модератором 21 Окт 2013 20:14:47
Как cкачать  ·  Как раздать  ·  Правильно оформить  ·  Поднять ратио!  
b3n3d1kt
Стаж: 13 лет 1 мес.
Сообщений: 300
Ratio: 20.6
Раздал: 8.358 TB
100%
Откуда: Кострома
russia.gif
Огромное-преогромное! Браво!
Silent Hunter
Стаж: 14 лет
Сообщений: 12
Ratio: 95.485
Раздал: 9.551 TB
100%
ukraine.gif
спасибо
da771
Uploader 300+
Стаж: 12 лет 5 мес.
Сообщений: 863
Ratio: 1354.368
Раздал: 703.1 TB
100%
ussr.gif
Спасибо и от меня
leupar
Стаж: 17 лет 1 мес.
Сообщений: 507
Ratio: 8.813
Поблагодарили: 332
100%
witch.png
Спасибо!

_________________
В зеркало смотрим не только мы. Оттуда смотрят на нас.
jaccord
Стаж: 10 лет 3 мес.
Сообщений: 6
Ratio: 1.202
100%
kyrgyzstan.gif
Спасибо большое!
Показать сообщения:   
Начать новую тему   Ответить на тему    Торрент-трекер NNM-Club -> Мультфильмы -> Зарубежные Мультфильмы 21-го века (HD, FHD, UHD) Часовой пояс: GMT + 3
Страница 1 из 1