Классический форум-трекер
canvas not supported
Нас вместе: 4 233 334

Лекарство от любви / Lekarstwo na milosc (1966) DVDRip


 
 
RSS
Начать новую тему   Ответить на тему    Торрент-трекер NNM-Club -> Классика кино и Старые фильмы до 90-х -> Старые Зарубежные Фильмы (SD)
Автор Сообщение
smpeal ®
Стаж: 11 лет 9 мес.
Сообщений: 62
Ratio: 99.87
Поблагодарили: 7340
100%
ussr.gif
Лекарство от любви / Lekarstwo na miłość (1966) DVDRip
Год выпуска: 1966
Жанр: Криминал, Детектив, Комедия

Режиссер: Ян Батори
Актеры: Калина Едрусик, Кристина Сенкевич, Веньчислав Глиньский, Анджей Лапицкий, Мечислав Чехович, Яцек Федорович, Рышард Рончевский, Хенрик Сташевский, Роман Сыкала, Тадеуш Возьняк

Описание фильма:
Фильм снят по мотивам повести Иоанны Хмелевской "Клин клином".

Иоанна проводит долгие часы перед телефоном в ожидании встречи с любимым, которого подозревает в неверности. Телефон постоянно звонит, но каждый раз оказывается, что звонящий ошибся номером. Через некоторое время оказывается, что номер телефона Иоанны очень похож на номер, с помощью которого связывается друг с другом банда фальшивомонетчиков. Милиция начинает что-то подозревать, и на разведку инкогнито отправляется очень красивый капитан милиции. От скуки и разочарования Иоанна поддерживает игру фальшивомонетчиков. Результатом является всеобщее замешательство, отчаянные поступки и, в самом конце — покушение на жизнь Иоанны. К счастью, рядом оказывается капитан, идеальное лекарство от несчастной любви.

Продолжительность: 01:36:03
Качество видео: DVDRip
Перевод: Дублированный (русский), оригинальный (польский)
Язык субтитров: Английские, Русские (на вырезанные сцены)
Вид субтитров: Вшитые (SRT)

Фильм дублирован на киностудии им. М. Горького в 1967 году.
Режиссёр дубляжа Г. Шепотинник, звукооператор Р. Карлюченко.

Роли дублировали:

Иоанна — Калина Ендрусик — Р. Макагонова
Янка — Кристина Сенкевич — М. Виноградова
Анджей — Анджей Лапицкий — Ф. Яворский
Януш — Венчислав Глинский — О. Мокшанцев
- Фильм снят в Варшаве, натурные съемки — на ул. Белянской неподалеку от Народной оперы, в Саксонском саду, на Мокотуве («Рогатки» (городская застава) на площади Люблинской унии , Варшавский Суперсам на ул. Пулавской) и в самом центре (ул. Эмилии Плятер возле бывшего джаз-клуба «Аквариум», перекресток улиц Маршалковской и Свентокшиской).

- В фильме звучит песня «Витамин М». Авторы слов — Збигнев Заперт и Зенон Вавшиняк, композитор Ежи Матушкевич, исполняет Богдан Чижевский.

- «Центральная», куда дозваниваются (а чаще не дозваниваются) члены банды — по-польски «centrala», означает просто «коммутатор», внутренняя АТС предприятия. Так что Иоанна, звоня по номеру, по которому звонил из Суперсама Анджей и который подсмотрела Янка, попадает на обычный коммутатор милицейского управления.

- Витамин M в природе существует — это фолиевая кислота. В песне, однако, речь идет о «витамине любви», ибо «M» в ней — от польского слова «miłość» («любовь»).


Дата мировой премьеры: 20 июля 1966
Дата выхода DVD релиза: 7 декабря 2011

Видеокодек: Xvid
Битрейт видео: 1705 Kbps
Размер кадра: 720x544
Аудио:
1. AC3, 224 Kbps, 2 канала - русский дублированный с субтитрами на вырезанные сцены
2. AC3, 224 Kbps, 2 канала - оригинальный (польский)
Общее
Уникальный идентификатор : 254777185550622561200719331751302879850 (0xBFAC4D1391EC5C97BD4E9D1C28D15A6A)
Полное имя : Z:\Фильмы\Зарубежная классика\Лекарство от любви (1966) DVDRip.mkv
Формат : Matroska
Версия формата : Version 2
Размер файла : 1,47 Гбайт
Продолжительность : 1 ч. 36 м.
Общий поток : 2197 Кбит/сек
Дата кодирования : UTC 2013-10-26 20:02:26
Программа кодирования : mkvmerge v5.2.1 ('A Far Off Place') built on Feb 6 2012 10:08:15
Библиотека кодирования : libebml v1.2.3 + libmatroska v1.3.0

Видео
Идентификатор : 1
Формат : MPEG-4 Visual
Профиль формата : Advanced Simple@L5
Параметр BVOP формата : Да
Параметр QPel формата : Нет
Параметр GMC формата : Без точки перехода
Параметр матрицы формата : Выборочная
Идентификатор кодека : V_MS/VFW/FOURCC / XVID
Идентификатор кодека/Подсказка : XviD
Продолжительность : 1 ч. 36 м.
Битрейт : 1705 Кбит/сек
Ширина : 720 пикселей
Высота : 544 пикселя
Соотношение сторон : 4:3
Режим частоты кадров : Постоянный
Частота кадров : 25,000 кадров/сек
Цветовое пространство : YUV
Субдискретизация насыщенности : 4:2:0
Битовая глубина : 8 бит
Тип развёртки : Прогрессивная
Метод сжатия : С потерями
Бит/(Пиксели*Кадры) : 0.174
Размер потока : 1,14 Гбайт (78%)
Библиотека кодирования : XviD 1.2.1 (UTC 2008-12-04)
Default : Да
Forced : Нет

Аудио #1
Идентификатор : 2
Формат : AC-3
Формат/Информация : Audio Coding 3
Расширение режима : CM (complete main)
Параметр Endianness формата : Big
Режим смешивания : Header stripping
Идентификатор кодека : A_AC3
Продолжительность : 1 ч. 36 м.
Вид битрейта : Постоянный
Битрейт : 224 Кбит/сек
Каналы : 2 канала
Расположение каналов : Front: L R
Частота : 48,0 КГц
Битовая глубина : 16 бит
Метод сжатия : С потерями
Размер потока : 154 Мбайт (10%)
Язык : Russian
Default : Да
Forced : Нет

Аудио #2
Идентификатор : 3
Формат : AC-3
Формат/Информация : Audio Coding 3
Профиль формата : Dolby Digital
Расширение режима : CM (complete main)
Параметр Endianness формата : Big
Режим смешивания : Header stripping
Идентификатор кодека : A_AC3
Продолжительность : 1 ч. 36 м.
Вид битрейта : Постоянный
Битрейт : 224 Кбит/сек
Каналы : 2 канала
Расположение каналов : Front: L R
Частота : 48,0 КГц
Битовая глубина : 16 бит
Метод сжатия : С потерями
Размер потока : 154 Мбайт (10%)
Язык : Polish
Default : Нет
Forced : Нет

Текст #1
Идентификатор : 4
Формат : UTF-8
Идентификатор кодека : S_TEXT/UTF8
Идентификатор кодека/Информация : UTF-8 Plain Text
Язык : English
Default : Да
Forced : Нет

Текст #2
Идентификатор : 5
Формат : UTF-8
Идентификатор кодека : S_TEXT/UTF8
Идентификатор кодека/Информация : UTF-8 Plain Text
Язык : Russian
Default : Нет
Forced : Нет
Скриншоты:


Все релизы "Лекарство от любви" на NNM-Club

Время раздачи: Выходные с 12 по 23, иногда вечером в будни
[nnm-club]_Lekarstvo_ot_lubvi_1966_DVDRip.mkv.torrent
 Торрент: Платиновая раздача  Зарегистрирован
 
Скачать


Примагнититься
 Зарегистрирован:   27 Окт 2013 12:00:35
 Размер:   1.47 GB  (
 Рейтинг:   4.8 (Голосов: 18)
 Поблагодарили:   96
 Проверка:   Оформление проверено модератором 27 Окт 2013 22:55:31
Как cкачать  ·  Как раздать  ·  Правильно оформить  ·  Поднять ратио!  
MITKA397
Стаж: 13 лет 1 мес.
Сообщений: 34
Ratio: 3.189
100%
Откуда: Ковров
russia.gif
Калина и Кристина просто влюбляют в себя...
smpeal ®
Спасибо за раздачу.
Показать сообщения:   
Начать новую тему   Ответить на тему    Торрент-трекер NNM-Club -> Классика кино и Старые фильмы до 90-х -> Старые Зарубежные Фильмы (SD) Часовой пояс: GMT + 3
Страница 1 из 1