Классический форум-трекер
canvas not supported
Нас вместе: 4 235 221

Человек из Рио / L'Homme de Rio (1964) BDRip


 
 
RSS
Начать новую тему   Ответить на тему    Торрент-трекер NNM-Club -> Архив торрентов -> Архив Классики кино и Старых фильмов до 90-х
Автор Сообщение
nnmclub0112 ®
Стаж: 12 лет 6 мес.
Сообщений: 4033
Ratio: 29.787
Поблагодарили: 264392
100%
Человек из Рио / L'Homme de Rio (1964) BDRip
Год выпуска: 1964
Жанр: Комедия, Боевик, Приключения

Описание фильма:
Похищена бесценная индейская статуэтка, а вместе с ней и дочь хозяина сокровища — красавица Аньес. Жених девушки Адриан отправляется в погоню за похитителями. Он не представляет, какие испытания его ждут впереди…

Режиссер: Филипп де Брока
Актеры: Жан-Поль Бельмондо, Франсуаза Дорлеак, Жан Сервэ, Роже Дюма, Даниэль Секкальди, Милтон Рибейро, Убираси Де Оливейра, Сабу ду Бразил, Адольфо Чели, Симона Ренан

Продолжительность: 01:55:34
Качество видео: BDRip
Перевод: Дублированный (киностудия им. М.Горького)



Видеокодек: Xvid
Битрейт видео: ~1797 Кбит/сек
Размер кадра: 720x432
Аудиокодек: AC3 2.0
Битрейт аудио: 192 Кбит/сек
Audio 1: AC3, 2 ch, 192 Кбит/сек - русский советский дубляж
Audio 2: AC3, 2 ch, 192Кбит/сек - русский двухголосый закадровый
Audio 2: AC3, 2 ch, 192Кбит/сек - французский оригинальный
Общее
Полное имя : E:\Интересно\Человек из Рио L'Homme de Rio\Человек из Рио (1964) BDRip.avi
Формат : AVI
Формат/Информация : Audio Video Interleave
Размер файла : 1,93 Гбайт
Продолжительность : 1 ч. 55 м.
Общий поток : 2392 Кбит/сек
Режиссёр : gbakh
Программа кодирования : VirtualDubMod 1.5.10.2 (build 2540/release)

Видео
Идентификатор : 0
Формат : MPEG-4 Visual
Профиль формата : Advanced Simple@L5
Параметр BVOP формата : 2
Параметр QPel формата : Нет
Параметр GMC формата : Без точки перехода
Параметр матрицы формата : Default (H.263)
Идентификатор кодека : XVID
Идентификатор кодека/Подсказка : XviD
Продолжительность : 1 ч. 55 м.
Битрейт : 1797 Кбит/сек
Ширина : 720 пикселей
Высота : 432 пикселя
Соотношение сторон : 1,667
Частота кадров : 24,000 кадра/сек
Цветовое пространство : YUV
Субдискретизация насыщенности : 4:2:0
Битовая глубина : 8 бит
Тип развёртки : Прогрессивная
Метод сжатия : С потерями
Бит/(Пиксели*Кадры) : 0.241
Размер потока : 1,45 Гбайт (75%)
Библиотека кодирования : XviD 1.2.1 (UTC 2008-12-04)

Аудио #1
Идентификатор : 1
Формат : AC-3
Формат/Информация : Audio Coding 3
Расширение режима : CM (complete main)
Параметр Endianness формата : Big
Идентификатор кодека : 2000
Продолжительность : 1 ч. 55 м.
Вид битрейта : Постоянный
Битрейт : 192 Кбит/сек
Каналы : 2 канала
Расположение каналов : Front: L R
Частота : 48,0 КГц
Битовая глубина : 16 бит
Метод сжатия : С потерями
Размер потока : 159 Мбайт (8%)
Выравнивание : Разделение по промежуткам
Продолжительность промежутка : 42 мс. (1,00 видеокадр)
Время предзагрузки промежутка : 500 мс.

Аудио #2
Идентификатор : 2
Формат : AC-3
Формат/Информация : Audio Coding 3
Расширение режима : CM (complete main)
Параметр Endianness формата : Big
Идентификатор кодека : 2000
Продолжительность : 1 ч. 55 м.
Вид битрейта : Постоянный
Битрейт : 192 Кбит/сек
Каналы : 2 канала
Расположение каналов : Front: L R
Частота : 48,0 КГц
Битовая глубина : 16 бит
Метод сжатия : С потерями
Размер потока : 159 Мбайт (8%)
Выравнивание : Разделение по промежуткам
Продолжительность промежутка : 42 мс. (1,00 видеокадр)
Время предзагрузки промежутка : 500 мс.

Аудио #3
Идентификатор : 3
Формат : AC-3
Формат/Информация : Audio Coding 3
Расширение режима : CM (complete main)
Параметр Endianness формата : Big
Идентификатор кодека : 2000
Продолжительность : 1 ч. 55 м.
Вид битрейта : Постоянный
Битрейт : 192 Кбит/сек
Каналы : 2 канала
Расположение каналов : Front: L R
Частота : 48,0 КГц
Битовая глубина : 16 бит
Метод сжатия : С потерями
Размер потока : 159 Мбайт (8%)
Выравнивание : Разделение по промежуткам
Продолжительность промежутка : 42 мс. (1,00 видеокадр)
Время предзагрузки промежутка : 500 мс.
Скриншоты:




Время раздачи: С 18:00 до 23:00

Все релизы фильма "Человек из Рио" на NNM-CLUB
[NNM-Club.me]_CHelovek iz Rio (1964) BDRip.avi.torrent
 Торрент: Платиновая раздача  Зарегистрирован
 
Скачать


Примагнититься
 Зарегистрирован:   10 Ноя 2013 11:09:24
 Размер:   1.93 GB  (
 Рейтинг:   4.9 (Голосов: 44)
 Поблагодарили:   164
 Проверка:   Оформление проверено модератором 10 Ноя 2013 17:57:09
Как cкачать  ·  Как раздать  ·  Правильно оформить  ·  Поднять ратио!  
dark_elf2
Релизер эксклюзива
Стаж: 16 лет 1 мес.
Сообщений: 2349
Ratio: 24.088
Поблагодарили: 214183
100%
ussr.gif
Спасибо Вам за фильм моего детства!
Kpt7
Стаж: 10 лет 9 мес.
Сообщений: 203
Ratio: 212.199
100%
ussr.gif
Отличный фильм от Филиппа де Брока. Чем запомнился...?
Километрами погонь, пробежек, которые вживую набЕгал тогда ещё юный Жан-Поль Бельмондо.
Его здоровье в 1964 году ему такого позволяло...
В соответствии со сценарием фильма "Человек из Рио".
А ещё там снялась актриса Франсуаза Дорлеак, за три года до своей смерти.
Родная сестра Катрин Денёв.
Скачивать не стану, в коллекции этот фильм уже имеется.
Когда то этот фильм показывал на большом экране...
Для тех, кто ещё не смотрел, искренне рекомендую посмотреть — не пожалеете.
Топик был перенесен из форума Зарубежная Классика (SD) в форум Архив Классики кино и Старых фильмов до 90-х

Причина переноса: Длительное отсутствие сида на протяжении более 6 месяцев.

Исправил релиз - напиши ЛС Kleopatra, дав ссылку на релиз.
Если нет ответа 24 часа - нажми на кнопку "Обратить внимание модераторов".
Показать сообщения:   
Начать новую тему   Ответить на тему    Торрент-трекер NNM-Club -> Архив торрентов -> Архив Классики кино и Старых фильмов до 90-х Часовой пояс: GMT + 3
Страница 1 из 1