Классический форум-трекер
canvas not supported
Нас вместе: 4 233 498

Ночь в Роксбери / A Night at the Roxbury (1998) HDTVRip


 
 
RSS
Начать новую тему   Ответить на тему    Торрент-трекер NNM-Club -> Зарубежное кино -> Зарубежные Фильмы (SD)
Автор Сообщение
Marioxo ®
Стаж: 11 лет 5 мес.
Сообщений: 61
Ratio: 8.309
Раздал: 3.58 TB
Поблагодарили: 10500
100%
russia.gif
Ночь в Роксбери / A Night at the Roxbury (1998) HDTVRip
Год выпуска: 1998
Производство: США
Жанр: Комедия

Описание фильма:
Они носят неотразимые костюмы и золотые цепи. У них модные прически и стильные бакенбарды. Их среда обитания — ночные клубы. Стимул их жизни — красивые женщины. Их самая заветная мечта — попасть в престижный и недоступный клуб «Роксбери»…

Режиссер: Джон Фортенберри, Эми Хекерлинг
Актеры: Уилл Феррелл, Крис Кэттэн, Рэкуэл Гарднер, Вивека Полин, Полетт Брэкстон, Майкл М. Хортон, Дженнифер Кулидж, Майкл Кларк Дункан, Ричард Греко

Продолжительность: 01:18:13
Качество видео: HDTVRip
Перевод: Многоголосый закадровый
Язык субтитров: Отсутствуют



Видеокодек: Xvid
Битрейт видео: ~2195.3 kb/s
Размер кадра: 716x576@1017x576
Аудио #1 (RUS): AC3 5.1, 384 kb/s (многоголосый)
Аудио #2 (ENG): AC3 5.1, 384 kb/s (оригинал)
Общее
Полное имя : D:\Торренты на раздачу\Ночь в Роксбери\A_Night_At_The_Roxbury.avi
Формат : AVI
Формат/Информация : Audio Video Interleave
Размер файла : 1,63 Гбайт
Продолжительность : 1 ч. 18 м.
Общий поток : 2977 Кбит/сек

Видео
Идентификатор : 0
Формат : MPEG-4 Visual
Профиль формата : Advanced Simple@L5
Параметр BVOP формата : 2
Параметр QPel формата : Нет
Параметр GMC формата : Без точки перехода
Параметр матрицы формата : Default (H.263)
Идентификатор кодека : XVID
Идентификатор кодека/Подсказка : XviD
Продолжительность : 1 ч. 18 м.
Битрейт : 2195 Кбит/сек
Ширина : 716 пикселей
Высота : 576 пикселей
Соотношение сторон : 16:9
Частота кадров : 23,976 кадра/сек
Цветовое пространство : YUV
Субдискретизация насыщенности : 4:2:0
Битовая глубина : 8 бит
Тип развёртки : Прогрессивная
Метод сжатия : С потерями
Бит/(Пиксели*Кадры) : 0.222
Размер потока : 1,20 Гбайт (74%)
Библиотека кодирования : XviD 1.2.1 (UTC 2008-12-04)

Аудио #1
Идентификатор : 1
Формат : AC-3
Формат/Информация : Audio Coding 3
Расширение режима : CM (complete main)
Параметр Endianness формата : Big
Идентификатор кодека : 2000
Продолжительность : 1 ч. 18 м.
Продолжительность оригинала : 1 ч. 18 м.
Вид битрейта : Постоянный
Битрейт : 384 Кбит/сек
Каналы : 6 каналов
Расположение каналов : Front: L C R, Side: L R, LFE
Частота : 48,0 КГц
Битовая глубина : 16 бит
Метод сжатия : С потерями
Размер потока : 215 Мбайт (13%)
Выравнивание : Соединение по промежуткам
Продолжительность промежутка : 42 мс. (1,00 видеокадр)

Аудио #2
Идентификатор : 2
Формат : AC-3
Формат/Информация : Audio Coding 3
Расширение режима : CM (complete main)
Параметр Endianness формата : Big
Идентификатор кодека : 2000
Продолжительность : 1 ч. 18 м.
Продолжительность оригинала : 1 ч. 18 м.
Вид битрейта : Постоянный
Битрейт : 384 Кбит/сек
Каналы : 6 каналов
Расположение каналов : Front: L C R, Side: L R, LFE
Частота : 48,0 КГц
Битовая глубина : 16 бит
Метод сжатия : С потерями
Размер потока : 215 Мбайт (13%)
Выравнивание : Соединение по промежуткам
Продолжительность промежутка : 42 мс. (1,00 видеокадр)
Скриншоты:


Все релизы "Ночь в Роксбери" на сайте

Время раздачи: Время раздачи: ~ С 14:00 до 03:00 (10-15 скачавших)
[NNM-Club.me]_A_Night_At_The_Roxbury.torrent
 Торрент: Платиновая раздача  Зарегистрирован
 
Скачать


Примагнититься
 Зарегистрирован:   18 Ноя 2013 22:34:44
 Размер:   1.63 GB  (
 Рейтинг:   4.8 (Голосов: 65)
 Поблагодарили:   241
 Проверка:   Оформление проверено модератором 19 Ноя 2013 15:08:10
Как cкачать  ·  Как раздать  ·  Правильно оформить  ·  Поднять ратио!  
artur127
Стаж: 12 лет 6 мес.
Сообщений: 30
Ratio: 18.008
Раздал: 7.622 TB
100%
Откуда: Москва
russia.gif
А я думал Джим Керри тоже там играет. А он только в клипе.
rezky7
Стаж: 14 лет
Сообщений: 661
Ratio: 10.076
Раздал: 6.322 TB
38.82%
Откуда: Калининградская oбл.
Улетная комедия, кстати.
Pepelr
Стаж: 12 лет 5 мес.
Сообщений: 58
Ratio: 17.484
4.05%
Откуда: msc
ussr.gif
дааа, зачетная! и саундтреки гуд

_________________
brr
Сергей12369
Стаж: 10 лет 6 мес.
Сообщений: 2
Ratio: 10.545
0%
Надо будет как-то пересмотреть ее))
Показать сообщения:   
Начать новую тему   Ответить на тему    Торрент-трекер NNM-Club -> Зарубежное кино -> Зарубежные Фильмы (SD) Часовой пояс: GMT + 3
Страница 1 из 1