Классический форум-трекер
canvas not supported
Нас вместе: 4 231 794

Драконы и всадники Олуха / Dragons: Riders of Berk (2012) WEB-DL [H.264/1080p-LQ] (1 сезон, cерий 20 из 20) (Невафильм)


 
 
RSS
Начать новую тему   Ответить на тему    Торрент-трекер NNM-Club -> Мультфильмы -> Зарубежные Мультсериалы
Автор Сообщение
School_Boy ®
Стаж: 12 лет 9 мес.
Сообщений: 677
Ratio: 30.938
Раздал: 20.98 TB
Поблагодарили: 64442
100%
Драконы и всадники Олуха / Dragons: Riders of Berk (2012) WEB-DL [H.264/1080p-LQ]
Год выпуска: 2012
Производство: США
Жанр: Мультфильм, Фэнтези, Комедия
Перевод: Дублированный | Невафильм, Оригинал
Субтитры: Вшитые Отключаемые + (.srt)
Язык субтитров: Русский, Английский

Режиссер: Энтони Белл, Джон Санфорд, Луи дель Кармен
Актеры: Джей Барушель, Америка Феррера, ТиДжей Миллер, Зак Перлман, Кристофер Минц-Плассе, Нолан Норт, Крис Эджерли, Джули Ариелла Маркус, Томас Ф. Уилсон, Стивен Рут

Описание фильма:
Викинги Олуха и их бывшие враги — драконы — теперь живут вместе в мире и покое, однако такое соседство всё равно не так уж гармонично, как хотелось бы. Несмотря на мирное сосуществование, драконы всё-таки остаются существами непредсказуемыми и опасными, реагирующими на многие вещи совершенно неожиданно. Иккинг решается открыть Школу для дрессировки драконов на Олухе, чтобы помочь драконам влиться в общество людей.

Сериал повествует о дальнейших приключениях Иккинга и его верного дракона Беззубика, а также остальных юных викингов — Астрид, Рыбьенога, Сморкалы, Забияки и Задираки — у каждого из которых теперь есть свой дракон. Во время тренировок друзьям удалось установить особые дружеские связи со своими драконами, изучив особенности и силу каждого из них. Судьба занесёт наших героев в самые разные места, где они откроют совершенно новых драконов, найдут новые приключения и будут сражаться с новыми злодеями, познавая мир, о котором даже и не подозревали.

Дата мировой премьеры: 7 августа 2012
Дата российской премьеры: 1 марта 2013
Продолжительность: ~00:22:30 серия
Качество видео: WEB-DL 1080p

Видеокодек: MPEG4-AVC/H.264
Битрейт видео: 5036 kbps
Размер кадра: 1920x1080
Аудио #1: AC3, 2.0, 48,0 КГц, 224 kbps | [Русский, Дублированный]
Аудио #2: AC3, 5.1, 48,0 КГц, 384 kbps | [Английский, Оригинал]
  1. Как устроить Школу Драконов | How to Start a Dragon Academy
  2. Викинг в поисках работы | Viking for Hire
  3. Обитель домашних животных | Animal House
  4. Грозная пара | The Terrible Twos
  5. На драконов уповаем | In Dragons We Trust
  6. Элвин и Изгои | Alvin and The Outcasts
  7. Как подобрать себе дракона | How to Pick Your Dragon
  8. Портрет Иккинга-здоровяка | Portrait of Hiccup as a Buff Man
  9. Драконий цветок | Dragon Flower
  10. Донесение Хэдер – Часть 1 | Heather Report – Part 1
  11. Донесение Хэдер – Часть 2 | Heather Report – Part 2
  12. День Весенья | Thawfest
  13. Двойное помешательство | Twinsanity
  14. Когда ударит молния | When Lightning Strikes
  15. Кто там летает внизу? | What Flies Beneath
  16. Отступник | Defiant One
  17. Топь | Breakneck Bog
  18. Разноцветный самоцвет | Gem of a Different Color
  19. Мы - одна семья – Часть 1 | We Are Family – Part 1
  20. Мы - одна семья – Часть 2 | We Are Family – Part 2
Код: выделить все

Формат                                   : Matroska
Версия формата                           : Version 4 / Version 2
Размер файла                             : 933 Мбайт
Продолжительность                        : 22 м.
Общий поток                              : 5758 Кбит/сек
Дата кодирования                         : UTC 2013-03-10 07:31:42
Программа кодирования                    : mkvmerge v6.0.0 ('Coming Up For Air') built on Jan 20 2013 09:52:00
Библиотека кодирования                   : libebml v1.3.0 + libmatroska v1.4.0

Видео
Идентификатор                            : 1
Формат                                   : AVC
Формат/Информация                        : Advanced Video Codec
Профиль формата                          : High@L4.0
Параметр CABAC формата                   : Да
Параметр ReFrames формата                : 4 кадра
Идентификатор кодека                     : V_MPEG4/ISO/AVC
Продолжительность                        : 22 м.
Битрейт                                  : 5036 Кбит/сек
Ширина                                   : 1920 пикселей
Высота                                   : 1080 пикселей
Соотношение сторон                       : 16:9
Режим частоты кадров                     : Постоянный
Частота кадров                           : 23,976 кадра/сек
Цветовое пространство                    : YUV
Субдискретизация насыщенности            : 4:2:0
Битовая глубина                          : 8 бит
Тип развёртки                            : Прогрессивная
Бит/(Пиксели*Кадры)                      : 0.101
Размер потока                            : 816 Мбайт (87%)
Язык                                     : English
Default                                  : Да
Forced                                   : Нет
Основные цвета                           : BT.709
Характеристики трансфера                 : BT.709
Коэффициенты матрицы                     : BT.709

Аудио #1
Идентификатор                            : 2
Формат                                   : AC-3
Формат/Информация                        : Audio Coding 3
Расширение режима                        : CM (complete main)
Параметр Endianness формата              : Big
Идентификатор кодека                     : A_AC3
Продолжительность                        : 22 м.
Вид битрейта                             : Постоянный
Битрейт                                  : 224 Кбит/сек
Каналы                                   : 2 канала
Расположение каналов                     : Front: L R
Частота                                  : 48,0 КГц
Битовая глубина                          : 16 бит
Метод сжатия                             : С потерями
Размер потока                            : 36,3 Мбайт (4%)
Заголовок                                : Дубляж [Невафильм]
Язык                                     : Russian
Default                                  : Да
Forced                                   : Нет

Аудио #2
Идентификатор                            : 3
Формат                                   : AC-3
Формат/Информация                        : Audio Coding 3
Расширение режима                        : CM (complete main)
Параметр Endianness формата              : Big
Идентификатор кодека                     : A_AC3
Продолжительность                        : 22 м.
Вид битрейта                             : Постоянный
Битрейт                                  : 384 Кбит/сек
Каналы                                   : 6 каналов
Расположение каналов                     : Front: L C R, Side: L R, LFE
Частота                                  : 48,0 КГц
Битовая глубина                          : 16 бит
Метод сжатия                             : С потерями
Размер потока                            : 62,2 Мбайт (7%)
Заголовок                                : Оригинал
Язык                                     : English
Default                                  : Нет
Forced                                   : Нет
Скриншоты:



Оформление - Arrow®

Драконы и всадники Олуха на NNM-club
Время раздачи: 24/7
[NNM-Club.me]_Drakonyi i vsadniki Oluha - Dragons Riders of Berk [Sezon 1] (2012-2013) [Rus, Eng].torrent
 Торрент: Платиновая раздача  Зарегистрирован
 
Скачать


Примагнититься
 Зарегистрирован:   19 Ноя 2013 22:45:47
 Размер:   17.9 GB  (
 Рейтинг:   4.8 (Голосов: 102)
 Поблагодарили:   366
 Проверка:   Оформление проверено модератором 21 Ноя 2013 06:18:22
Как cкачать  ·  Как раздать  ·  Правильно оформить  ·  Поднять ратио!  
ярик52773
Стаж: 12 лет 5 мес.
Сообщений: 139
Ratio: 11.698
80.34%
canada.gif
С раздачей............глухо как втанке..........печально
Mannarox
Стаж: 12 лет 5 мес.
Сообщений: 236
Ratio: 13.66
100%
Откуда: пришла Helvetica
russia.gif
сериал хороший, мне понравилось))

_________________
Ноутбук Win 8 X64, GeForce GT 640M, Intel Core I5
трезорыч
Стаж: 11 лет 7 мес.
Сообщений: 2713
Ratio: 54.058
100%
Откуда: Из Интернета
russia.gif
Спасибо, прикольный очень понравился ! :приветствую: :поклоняется: :супер!:
Показать сообщения:   
Начать новую тему   Ответить на тему    Торрент-трекер NNM-Club -> Мультфильмы -> Зарубежные Мультсериалы Часовой пояс: GMT + 3
Страница 1 из 1