Классический форум-трекер
canvas not supported
Нас вместе: 4 166 488

Black Sabbath - Live... Gathered In Their Masses (2013) [FLAC|Lossless]<Heavy Metal/Hard Rock>


 
 
RSS
Начать новую тему   Ответить на тему    Торрент-трекер NNM-Club -> Архив торрентов -> Архив Музыки
Автор Сообщение
Shuran80 ®
Свободный релизер
 
Стаж: 12 лет 6 мес.
Сообщений: 3348
Ratio: 1102.125
Раздал: 87.06 TB
Поблагодарили: 192314
100%
Откуда: Ленинград
ussr.gif
Black Sabbath - Live... Gathered In Their Masses (2013)
Год: 2013
Жанр: Heavy Metal/Hard Rock
Страна: Великобритания
Продолжительность: 01:09:17

Издатель: Universal Music
Номер по каталогу: 00602537540891
Кодек: FLAC (image+.cue)
Битрейт: Lossless

Треклист:
01. War Pigs (8:12)
02. Loner (4:58)
03. Black Sabbath (7:56)
04. Methademic (5:15)
05. N.I.B. (6:10)
06. Iron Man (7:35)
07. End Of The Beginning (8:09)
08. Fairies Wear Boots (6:59)
09. God Is Dead? (9:00)
10. Sabbath Bloody Sabbath (Intro) / Paranoid (5:03)
Код:

Exact Audio Copy V1.0 beta 3 from 29. August 2011

EAC extraction logfile from 26. November 2013, 16:15

Black Sabbath / Live... Gathered In Their Masses

Used drive  : HL-DT-STDVD-RAM GH15L   Adapter: 4  ID: 0

Read mode               : Secure
Utilize accurate stream : Yes
Defeat audio cache      : Yes
Make use of C2 pointers : No

Read offset correction                      : 667
Overread into Lead-In and Lead-Out          : No
Fill up missing offset samples with silence : Yes
Delete leading and trailing silent blocks   : No
Null samples used in CRC calculations       : Yes
Used interface                              : Native Win32 interface for Win NT & 2000

Used output format              : User Defined Encoder
Selected bitrate                : 1024 kBit/s
Quality                         : High
Add ID3 tag                     : Yes
Command line compressor         : C:\Program Files (x86)\Exact Audio Copy\Flac\flac.exe
Additional command line options : -6 -V -T "ARTIST=%artist%" -T "TITLE=%title%" -T "ALBUM=%albumtitle%" -T "DATE=%year%" -T "TRACKNUMBER=%tracknr%" -T "GENRE=%genre%" -T "COMMENT=%comment%" -T "BAND=%albuminterpret%" -T "ALBUMARTIST=%albuminterpret%" -T "COMPOSER=%composer%" %haslyrics%--tag-from-file=LYRICS="%lyricsfile%"%haslyrics% -T "DISCNUMBER=%cdnumber%" -T "TOTALDISCS=%totalcds%" -T "TOTALTRACKS=%numtracks%" %hascover%--picture="%coverfile%"%hascover% %source% -o %dest%

TOC of the extracted CD

     Track |   Start  |  Length  | Start sector | End sector
    ---------------------------------------------------------
        1  |  0:00.00 |  8:12.04 |         0    |    36903
        2  |  8:12.04 |  4:57.53 |     36904    |    59231
        3  | 13:09.57 |  7:56.00 |     59232    |    94931
        4  | 21:05.57 |  5:14.65 |     94932    |   118546
        5  | 26:20.47 |  6:10.35 |    118547    |   146331
        6  | 32:31.07 |  7:34.60 |    146332    |   180441
        7  | 40:05.67 |  8:08.42 |    180442    |   217083
        8  | 48:14.34 |  6:58.65 |    217084    |   248498
        9  | 55:13.24 |  8:59.57 |    248499    |   288980
       10  | 64:13.06 |  5:03.34 |    288981    |   311739

Range status and errors

Selected range

     Filename C:\Users\DAREK\Desktop\BLACK SABBATH [2013] [CD] Live... Gathered In Their Masses\Black Sabbath - Live... Gathered In Their Masses.wav

     Peak level 98.8 %
     Extraction speed 6.3 X
     Range quality 100.0 %
     Copy CRC 827C0045
     Copy OK

No errors occurred

End of status report
Код:

-----------------------

DON'T MODIFY THIS FILE

-----------------------

PERFORMER: auCDtect Task Manager, ver. 1.5.1RC4 build 1.5.1.5
Copyright (c) 2008-2010 y-soft. All rights reserved
http://y-soft.org

ANALYZER: auCDtect: CD records authenticity detector, version 0.8.2
Copyright (c) 2004 Oleg Berngardt. All rights reserved.
Copyright (c) 2004 Alexander Djourik. All rights reserved.

FILE: Black Sabbath - Live... Gathered In Their Masses.flac
  Size: 525945519 Hash: EA6403FAC1843C6C7F32EB9D439D3F53 Accuracy: -m0
  Conclusion: CDDA 100%
  Signature: 8649A594C2AF828C67AA177F4053D48176543F4B

После камбэка с альбомом "13" Black Sabbath отправились в гастрольное турне. Одним из самых запоминающихся концертов в туре стали выступления на Зелёном Континенте. 29 апреля и 1 мая 2013 года у музыкантов прошло 2 концерта в Мельбурне, которые надолго запомнились всем австралийцам. Black Sabbath решили, что было бы замечательно выпустить CD/DVD и Blu-ray с записью этих выступлений. Уникальный диск под названием «Black Sabbath: Live…Gathered in Their Masses» вышел в ноябре. На нём великолепно передана неповторимая атмосфера живого концерта, когда музыка Black Sabbath встречает живой отклик в сердцах поклонников.

Состав:
Tony Iommi – гитара
Geezer Butler – бас
Ozzy Osbourne – вокал

Приглашённые музыканты:
Adam Wakeman – клавишные
Tommy Clufetos – ударные

Оф. сайт группы
За предоставленный материал спасибо Dar_kW

Время раздачи: Обычно с 19:00 до 00:00 :спит:



Поглощение/вытеснение
Только с согласия релизера

Bigbeer
[NNM-Club.me]_Black Sabbath - Live... Gathered In Their Masses (2013) FLAC.torrent
 Торрент: Платиновая раздача  Зарегистрирован
 
Скачать


Примагнититься
 Зарегистрирован:   27 Ноя 2013 21:02:12
 Размер:   542 MB  (
 Рейтинг:   4.8 (Голосов: 26)
 Поблагодарили:   59
 Проверка:   Оформление проверено модератором 28 Ноя 2013 13:43:24
Как cкачать  ·  Как раздать  ·  Правильно оформить  ·  Поднять ратио!  
Топик был перенесен из форума Metal (Lossless) в форум Архив Музыки

Причина переноса: Длительное отсутствие сида на протяжении более 6 месяцев.

Исправил релиз - напиши ЛС chaosman1986, дав ссылку на релиз.
Если нет ответа 24 часа - нажми на кнопку "Обратить внимание модераторов".
Показать сообщения:   
Начать новую тему   Ответить на тему    Торрент-трекер NNM-Club -> Архив торрентов -> Архив Музыки Часовой пояс: GMT + 3
Страница 1 из 1