Классический форум-трекер
canvas not supported
Нас вместе: 4 171 756

Бравый спецназ США или Высадка в маленькой Ливии (2012) DVDRip


 
 
RSS
Начать новую тему   Ответить на тему    Торрент-трекер NNM-Club -> Юмор -> Приколы
Автор Сообщение
FedExe ®
Uploader 300+
Стаж: 11 лет 5 мес.
Сообщений: 9668
Ratio: 392.139
Поблагодарили: 943619
100%
Откуда: LoX - living off experien
Бравый спецназ США или Высадка в маленькой Ливии (2012) DVDRip
Режиссер / Телекомпания: студия "Zombi Films"
Год выпуска: 2012
Жанр: Короткометражный, Комедия, Пародия

Перевод: Одноголосый закадровый, любительский (Внимание! Присутствует ненормативная лексика)
Участники: Дэн Некромант

Описание:
Короткометражный фильм по мотивам реальных мировых событий. Бравый спецназ США плывет на корабле «Батаан» к африканским берегам, а затем высаживается в Ливии.

Продолжительность: 00:17:57
Качество видео: DVDRip

Видеокодек: Xvid
Битрейт видео: ~1626 Кбит/с
Размер кадра: 640х360
Аудиокодек: MP3
Битрейт аудио: 192 Кбит/сек, 2ch
General
Format : AVI
Format/Info : Audio Video Interleave
File size : 245 MiB
Duration : 17mn 57s
Overall bit rate : 1 909 Kbps

Video
ID : 0
Format : MPEG-4 Visual
Format profile : Advanced Simple@L5
Format settings, BVOP : 2
Format settings, QPel : No
Format settings, GMC : No warppoints
Format settings, Matrix : Default (H.263)
Muxing mode : Packed bitstream
Codec ID : XVID
Codec ID/Hint : XviD
Duration : 17mn 57s
Bit rate : 1 626 Kbps
Width : 640 pixels
Height : 360 pixels
Display aspect ratio : 16:9
Frame rate : 25.000 fps
Color space : YUV
Chroma subsampling : 4:2:0
Bit depth : 8 bits
Scan type : Progressive
Compression mode : Lossy
Bits/(Pixel*Frame) : 0.282
Stream size : 209 MiB (85%)
Writing library : XviD 1.2.1 (UTC 2008-12-04)

Audio
ID : 1
Format : MPEG Audio
Format version : Version 1
Format profile : Layer 3
Mode : Joint stereo
Mode extension : MS Stereo
Codec ID : 55
Codec ID/Hint : MP3
Duration : 17mn 56s
Bit rate mode : Constant
Bit rate : 192 Kbps
Channel(s) : 2 channels
Sampling rate : 44.1 KHz
Compression mode : Lossy
Stream size : 24.6 MiB (10%)
Alignment : Split accross interleaves
Interleave, duration : 250 ms (6.25 video frames)
Interleave, preload duration : 222 ms
Скриншоты:


Время раздачи: 24/7 (круглосуточно) - до 5 скачавших, далее по возможности.
[NNM-Club.me]_Bravyiy spetsnaz SSHA ili Vyisadka v malen'koy Livii (2012) DVDRip.avi.torrent
 Торрент: Платиновая раздача  Зарегистрирован
 
Скачать


Примагнититься
 Зарегистрирован:   07 Дек 2013 15:59:42
 Размер:   245 MB  (
 Рейтинг:   3.9 (Голосов: 29)
 Поблагодарили:   105
 Проверка:   Оформление проверено модератором 10 Дек 2013 21:29:08
Как cкачать  ·  Как раздать  ·  Правильно оформить  ·  Поднять ратио!  

_________________

Ну и конечно, данный материал выложен исключительно для ознакомления. После просмотра Вы обязаны удалить все файлы, отформатировать жесткий диск, разбить его молотком, облить кислотой и сжечь остатки в микроволновке.
Moonlyght
Стаж: 9 лет 10 мес.
Сообщений: 144
Ratio: 524.051
Раздал: 28.23 TB
Поблагодарили: 2
100%
ussr.gif
Ну что это, если не бред? Шутки юмора не понял((
Релизеру спасибо.
Borislaw
Стаж: 10 лет 6 мес.
Сообщений: 46
Ratio: 1.725
Поблагодарили: 8
100%
angola.gif
Тема поднята интересная!Подана ужасно!
Показать сообщения:   
Начать новую тему   Ответить на тему    Торрент-трекер NNM-Club -> Юмор -> Приколы Часовой пояс: GMT + 3
Страница 1 из 1