Классический форум-трекер
canvas not supported
Нас вместе: 4 233 359

Знакомьтесь, семья Санта Клауса / Meet the Santas (2005) SATRip


 
 
RSS
Начать новую тему   Ответить на тему    Торрент-трекер NNM-Club -> Зарубежное кино -> Зарубежные Фильмы (SD)
Автор Сообщение
smpeal ®
Стаж: 11 лет 9 мес.
Сообщений: 62
Ratio: 99.87
Поблагодарили: 7340
100%
ussr.gif
Знакомьтесь, семья Санта Клауса / Meet the Santas (2005) SATRip
Год выпуска: 2005
Жанр: Комедия, Семейный, Фэнтези

Описание фильма:
Данный фильм является продолжением фильма
Одинокий Санта желает познакомиться с миссис Клаус

Наследник Санта Клауса Ник должен впервые исполнить праздничные обязанности своего отца. До Рождества остается одиннадцать дней, когда на Ника и его избранницу Бет сваливаются многочисленные трудности и организационные проблемы.

Режиссер: Харви Фрост
Актеры: Стив Гуттенберг, Кристал Бернард, Доминик Скотт Кэй, Армин Шимерман, Джон Вилер, Marcia Ann Burrs, Мэриетт Хартли, Джули Ариола, Роурк Критчлоу, Келли Хазен

Продолжительность: 01:23:18
Качество видео: SATRip
Перевод: Многоголосый закадровый



Дата мировой премьеры: 17 декабря 2005

Видеокодек: Xvid
Битрейт видео: ~962
Размер кадра: 544х400
Аудиокодек: MP3, 2 канала
Битрейт аудио: 128 Kbps
Общее
Полное имя : Z:\Фильмы\Зарубежное кино\Стив Гутенберг (Санта Клаус)\Знакомьтесь, семья Санта Клауса (2005) SATRip.avi
Формат : AVI
Формат/Информация : Audio Video Interleave
Размер файла : 655 Мбайт
Продолжительность : 1 ч. 23 м.
Общий поток : 1100 Кбит/сек
Библиотека кодирования : VirtualDub build 30009/release

Видео
Идентификатор : 0
Формат : MPEG-4 Visual
Профиль формата : Advanced Simple@L5
Параметр BVOP формата : 1
Параметр QPel формата : Нет
Параметр GMC формата : Без точки перехода
Параметр матрицы формата : Выборочная
Идентификатор кодека : XVID
Идентификатор кодека/Подсказка : XviD
Продолжительность : 1 ч. 23 м.
Битрейт : 962 Кбит/сек
Ширина : 544 пикселя
Высота : 400 пикселей
Соотношение сторон : 4:3
Частота кадров : 25,000 кадров/сек
Цветовое пространство : YUV
Субдискретизация насыщенности : 4:2:0
Битовая глубина : 8 бит
Тип развёртки : Прогрессивная
Метод сжатия : С потерями
Бит/(Пиксели*Кадры) : 0.177
Размер потока : 573 Мбайт (87%)
Библиотека кодирования : XviD 1.2.1 (UTC 2008-12-04)

Аудио
Идентификатор : 1
Формат : MPEG Audio
Версия формата : Version 1
Профиль формата : Layer 3
Режим : Joint stereo
Идентификатор кодека : 55
Идентификатор кодека/Подсказка : MP3
Продолжительность : 1 ч. 23 м.
Вид битрейта : Постоянный
Битрейт : 128 Кбит/сек
Каналы : 2 канала
Частота : 48,0 КГц
Метод сжатия : С потерями
Размер потока : 76,3 Мбайт (12%)
Выравнивание : Разделение по промежуткам
Продолжительность промежутка : 40 мс. (1,00 видеокадр)
Время предзагрузки промежутка : 500 мс.
Скриншоты:


Время раздачи: По выходным с 12 до 24, иногда вечером в будни
[NNM-Club.me]_Znakom'tes', sem'ya Santa Klausa (2005) SATRip.avi.torrent
 Торрент: Платиновая раздача  Зарегистрирован
 
Скачать


Примагнититься
 Зарегистрирован:   12 Дек 2013 21:32:55
 Размер:   655 MB  (
 Рейтинг:   4.6 (Голосов: 17)
 Поблагодарили:   61
 Проверка:   Оформление проверено модератором 12 Дек 2013 23:39:55
Как cкачать  ·  Как раздать  ·  Правильно оформить  ·  Поднять ратио!  
Показать сообщения:   
Начать новую тему   Ответить на тему    Торрент-трекер NNM-Club -> Зарубежное кино -> Зарубежные Фильмы (SD) Часовой пояс: GMT + 3
Страница 1 из 1