Классический форум-трекер
canvas not supported
Нас вместе: 4 210 906

Властелин колец: Братство Кольца / The Lord of the Rings: The Fellowship of the Ring (2001) BDRip [Theatrical Editions]


 
 
RSS
Начать новую тему   Ответить на тему    Торрент-трекер NNM-Club -> Зарубежное кино -> Зарубежные Фильмы (SD)
Автор Сообщение
borik_rotor ®
Стаж: 9 лет
Сообщений: 159
Ratio: 52.238
Раздал: 2.132 TB
Поблагодарили: 22945
100%
Откуда: Владивосток
russia.gif
Властелин колец: Братство Кольца / The Lord of the Rings: The Fellowship of the Ring (2001) BDRip [Theatrical Editions]

Год выпуска: 2001
Жанр: Фэнтези, Приключения
Производство: США, Новая Зеландия
Описание фильма:
Сказания о Средиземье — это хроника Великой войны за Кольцо, войны, длившейся не одну тысячу лет. Тот, кто владел Кольцом, получал власть над всеми живыми тварями, но был обязан служить злу.Тихая деревня, где живут хоббиты. Волшебник Гэндальф, придя на 111-й день рождения к своему старому другу Бильбо Бэггинсу, начинает вести разговор о кольце, которое Бильбо нашел много лет назад. Это кольцо принадлежало когда-то темному властителю Средиземья Саурону, и оно дает большую власть своему обладателю...
Режиссер: Питер Джексон
Актеры: Элайджа Вуд, Иэн Холм, Иэн МакКеллен, Вигго Мортенсен, Доминик Монахэн, Билли Бойд, Шон Бин, Шон Эстин, Орландо Блум, Хьюго Уивинг, Кейт Бланшетт, Джон Рис-Дэвис, Алан Ховард, Лив Тайлер, Кристофер Ли, Энди Серкис, Марк Фергюсон, Лоуренс Макор, Брент Макинтайр, Сара МакЛеод, Йен Мун, Крэйг Паркер, Камерон Родс, Гарри Синклер
Продолжительность: 02:58:24
Качество видео: BDRip исходник BD-Remux
Перевод: Профессиональный (полное дублирование)
Язык субтитров: английские, форсированные на эльфийскую речь
Вид субтитров: вшитые, неотключаемые


Дата мировой премьеры: 10 декабря 2001
Дата российской премьеры: 7 февраля 2002, «Каро-Премьер»
Дата выхода DVD релиза: 3 февраля 2011, «CP-Digital»
Видеокодек: Xvid
Битрейт видео: 1035 kbps
Размер кадра: 688x288
Аудиокодек: MP3 2,0 ch
Битрейт аудио: ~128.00 kbps

General
Complete name : С:\Vlastelin_Kolec_1.avi
Format : AVI
Format/Info : Audio Video Interleave
File size : 1.46 GiB
Duration : 2h 58mn
Overall bit rate : 1 172 Kbps
Writing application : VirtualDubMod 1.5.10.2 (build 2540/release)
Writing library : VirtualDubMod build 2540/release

Video
ID : 0
Format : MPEG-4 Visual
Format profile : Advanced Simple@L5
Format settings, BVOP : 2
Format settings, QPel : No
Format settings, GMC : No warppoints
Format settings, Matrix : Custom
Codec ID : XVID
Codec ID/Hint : XviD
Duration : 2h 58mn
Bit rate : 1 035 Kbps
Width : 688 pixels
Height : 288 pixels
Display aspect ratio : 2.40:1
Frame rate : 23.976 fps
Color space : YUV
Chroma subsampling : 4:2:0
Bit depth : 8 bits
Scan type : Progressive
Compression mode : Lossy
Bits/(Pixel*Frame) : 0.218
Stream size : 1.29 GiB (88%)
Writing library : XviD 58

Audio
ID : 1
Format : MPEG Audio
Format version : Version 1
Format profile : Layer 3
Codec ID : 55
Codec ID/Hint : MP3
Duration : 2h 58mn
Bit rate mode : Constant
Bit rate : 128 Kbps
Channel(s) : 2 channels
Sampling rate : 48.0 KHz
Compression mode : Lossy
Stream size : 163 MiB (11%)
Alignment : Aligned on interleaves
Interleave, duration : 42 ms (1.00 video frame)
Interleave, preload duration : 504 ms
Writing library : LAME3.97
Encoding settings : -m s -V 4 -q 2 -lowpass 17 -b 128







Время раздачи: 24/7 (до 5 скачавших)
 Торрент: Платиновая раздача  Зарегистрирован
 
Скачать


Примагнититься
 Зарегистрирован:   17 Дек 2013 14:01:41
 Размер:   1.46 GB  (
 Рейтинг:   4.7 (Голосов: 169)
 Поблагодарили:   604
 Проверка:   Оформление проверено модератором 17 Дек 2013 19:47:19
Как cкачать  ·  Как раздать  ·  Правильно оформить  ·  Поднять ратио!  
antinari
Стаж: 9 лет 1 мес.
Сообщений: 45
Ratio: 38.687
100%
norway.gif
Исходник судя по всему не русский BD. На него просто наложили русскую дорожку, оставив название, аннотации и титры на английском.
Хотя качество картинки для такого размера вполне пристойное.
Denschik
Стаж: 11 лет 1 мес.
Сообщений: 505
Ratio: 27.619
Раздал: 10.26 TB
100%
ussr.gif
Что с семплом?
Показать сообщения:   
Начать новую тему   Ответить на тему    Торрент-трекер NNM-Club -> Зарубежное кино -> Зарубежные Фильмы (SD) Часовой пояс: GMT + 3
Страница 1 из 1