Классический форум-трекер
canvas not supported
Нас вместе: 4 093 499

Эйс Вентура 2: Когда зовет природа / Ace Ventura: When Nature Calls (1995) HDTVRip [H.264]


 
 
RSS
Начать новую тему   Ответить на тему    Торрент-трекер NNM-Club -> Зарубежное кино -> Зарубежные Фильмы (HD*Rip/LQ, DVDRip, SATRip, VHSRip)
Автор Сообщение
borik_rotor ®
Стаж: 6 лет 2 мес.
Сообщений: 159
Ratio: 52,238
Раздал: 2,132 TB
Поблагодарили: 21998
100%
Откуда: Владивосток
russia.gif
Эйс Вентура 2: Когда зовет природа / Ace Ventura: When Nature Calls (1995) HDTVRip
«Новые животные, новые приключения, та же прическа»

Год выпуска: 1995
Жанр: Комедия
Производство: США
Описание фильма:
Знаменитый детектив Эйс Вентура, лучший в мире специалист по розыску пропавших домашних любимцев должен найти Шикаку - священное животное африканского племени Вачати. Без Шикаки не может состояться свадьба дочери вождя племени Вачати и сына вождя воинственного племени Вачуту.
Режиссер: Стив Одекерк
Актеры: Джим Керри, Йен МакНайс, Саймон Кэллоу, Боб Гантон, Софи Оконедо

Продолжительность: 01:33:57
Качество видео: HDTVRip исходник {HDTV/1080i}
Перевод: Професиональный (полное дублирование), Професиональный (двухголосый, закадровый), Авторский одноголосый
Язык субтитров: Русские
Вид субтитров: вшитые


Дата мировой премьеры: 10 ноября 1995
Дата выхода DVD релиза: 3 ноября 2011, «CP-Digital»

Видеокодек: MPEG-4 AVC/H.264
Битрейт видео: 1439 kbps
Размер кадра: 928x388

Аудио#1: Russian 48.0 KHz, AC3, 6 ch, ~384 Kbps / Dub
Аудио#2: Russian 48.0 KHz, AC3, 2 ch, ~192 Kbps / Dvo/ НТВ
Аудио#3: Russian 48.0 KHz, HE-AAC, 2 ch, ~70 Kbps / Avo/ Визгунов
Аудио#4: English 48.0 KHz, HE-AAC, 6 ch, ~128 Kbps / Original

Общее
Уникальный идентификатор : 229914705117993733030069089800621439798 (0xACF7F62672B2C8789834741C967CBB36)
Полное имя : C:\Downloads\Ace Ventura. When Nature Calls.mkv
Формат : Matroska
Версия формата : Version 2
Размер файла : 1,45 Гбайт
Продолжительность : 1 ч. 33 м.
Общий поток : 2215 Кбит/сек
Дата кодирования : UTC 2012-05-24 11:32:31
Программа кодирования : mkvmerge v5.2.1 ('A Far Off Place') built on Jan 2 2012 23:21:10
Библиотека кодирования : libebml v1.2.3 + libmatroska v1.3.0

Видео
Идентификатор : 1
Формат : AVC
Формат/Информация : Advanced Video Codec
Профиль формата : High@L4.1
Параметр CABAC формата : Да
Параметр ReFrames формата : 16 кадров
Идентификатор кодека : V_MPEG4/ISO/AVC
Продолжительность : 1 ч. 33 м.
Номинальный битрейт : 1439 Кбит/сек
Ширина : 928 пикселей
Высота : 388 пикселей
Соотношение сторон : 2,40:1
Частота кадров : 23,976 кадра/сек
Цветовое пространство : YUV
Субдискретизация насыщенности : 4:2:0
Битовая глубина : 8 бит
Тип развёртки : Прогрессивная
Бит/(Пиксели*Кадры) : 0.167
Библиотека кодирования : x264 core 120 r2164 da19765
Настройки программы : cabac=1 / ref=16 / deblock=1:-2:-1 / analyse=0x3:0x133 / me=umh / subme=10 / psy=1 / psy_rd=1.00:0.10 / mixed_ref=1 / me_range=24 / chroma_me=1 / trellis=2 / 8x8dct=1 / cqm=0 / deadzone=21,11 / fast_pskip=1 / chroma_qp_offset=-3 / threads=3 / sliced_threads=0 / nr=0 / decimate=1 / interlaced=0 / bluray_compat=0 / constrained_intra=0 / bframes=8 / b_pyramid=0 / b_adapt=2 / b_bias=0 / direct=3 / weightb=1 / open_gop=0 / weightp=2 / keyint=240 / keyint_min=23 / scenecut=40 / intra_refresh=0 / rc_lookahead=60 / rc=2pass / mbtree=1 / bitrate=1439 / ratetol=1.0 / qcomp=0.60 / qpmin=10 / qpmax=51 / qpstep=4 / cplxblur=20.0 / qblur=0.5 / vbv_maxrate=50000 / vbv_bufsize=50000 / nal_hrd=none / ip_ratio=1.40 / aq=1:1.00
Default : Да
Forced : Нет

Аудио #1
Идентификатор : 2
Формат : AC-3
Формат/Информация : Audio Coding 3
Расширение режима : CM (complete main)
Идентификатор кодека : A_AC3
Продолжительность : 1 ч. 33 м.
Вид битрейта : Постоянный
Битрейт : 384 Кбит/сек
Каналы : 6 каналов
Расположение каналов : Front: L C R, Side: L R, LFE
Частота : 48,0 КГц
Битовая глубина : 16 бит
Метод сжатия : С потерями
Размер потока : 258 Мбайт (17%)
Язык : Russian
Default : Да
Forced : Нет

Аудио #2
Идентификатор : 3
Формат : AC-3
Формат/Информация : Audio Coding 3
Расширение режима : CM (complete main)
Идентификатор кодека : A_AC3
Продолжительность : 1 ч. 33 м.
Вид битрейта : Постоянный
Битрейт : 192 Кбит/сек
Каналы : 2 канала
Расположение каналов : Front: L R
Частота : 48,0 КГц
Битовая глубина : 16 бит
Метод сжатия : С потерями
Размер потока : 129 Мбайт (9%)
Язык : Russian
Default : Нет
Forced : Нет

Аудио #3
Идентификатор : 4
Формат : AAC
Формат/Информация : Advanced Audio Codec
Профиль формата : HE-AAC / LC
Идентификатор кодека : A_AAC
Продолжительность : 1 ч. 33 м.
Каналы : 2 канала
Расположение каналов : Front: L R
Частота : 48,0 КГц / 24,0 КГц
Метод сжатия : С потерями
Язык : Russian
Default : Нет
Forced : Нет

Аудио #4
Идентификатор : 5
Формат : AAC
Формат/Информация : Advanced Audio Codec
Профиль формата : HE-AAC / LC
Идентификатор кодека : A_AAC
Продолжительность : 1 ч. 33 м.
Каналы : 6 каналов
Расположение каналов : Front: L C R, Side: L R, LFE
Частота : 48,0 КГц / 24,0 КГц
Метод сжатия : С потерями
Язык : English
Default : Нет
Forced : Нет

Текст
Идентификатор : 6
Формат : UTF-8
Идентификатор кодека : S_TEXT/UTF8
Идентификатор кодека/Информация : UTF-8 Plain Text
Язык : Russian
Default : Нет
Forced : Нет

Скриншоты:




Время раздачи: 24/7 (до 5 скачавших)
[NNM-Club.me]_Ace Ventura. When Nature Calls.mkv.torrent
 Торрент: Платиновая раздача  Зарегистрирован
 
Скачать


Примагнититься
 Зарегистрирован:   28 Дек 2013 15:07:01
 Размер:   1,45 GB  (
 Рейтинг:   4,8 (Голосов: 76)
 Поблагодарили:   250
 Проверка:   Оформление проверено модератором 29 Дек 2013 23:51:07
Как cкачать  ·  Как раздать  ·  Правильно оформить  ·  Поднять ратио!  
Klaid1
Стаж: 7 лет 11 мес.
Сообщений: 29
Ratio: 45,307
37.17%
Вторая озвучка самая лучшая конечно
Показать сообщения:   
Начать новую тему   Ответить на тему    Торрент-трекер NNM-Club -> Зарубежное кино -> Зарубежные Фильмы (HD*Rip/LQ, DVDRip, SATRip, VHSRip) Часовой пояс: GMT + 3
Страница 1 из 1